  0
SECTION
  2
HEADER
  9
$ACADVER
  1
AC1021
  9
$ACADMAINTVER
 70
    25
  9
$DWGCODEPAGE
  3
ANSI_1252
  9
$LASTSAVEDBY
  1
Juha-Matti
  9
$INSBASE
 10
0.0
 20
0.0
 30
0.0
  9
$EXTMIN
 10
-1637.500000016404
 20
-1080.500000000071
 30
0.0
  9
$EXTMAX
 10
2287.500000016404
 20
4620.500000000073
 30
0.0
  9
$LIMMIN
 10
-1637.500000016404
 20
-1080.500000000071
  9
$LIMMAX
 10
2287.500000016404
 20
4620.500000000073
  9
$ORTHOMODE
 70
     0
  9
$REGENMODE
 70
     1
  9
$FILLMODE
 70
     1
  9
$QTEXTMODE
 70
     0
  9
$MIRRTEXT
 70
     1
  9
$LTSCALE
 40
1.0
  9
$ATTMODE
 70
     1
  9
$TEXTSIZE
 40
0.2
  9
$TRACEWID
 40
0.05
  9
$TEXTSTYLE
  7
Standard
  9
$CLAYER
  8
0
  9
$CELTYPE
  6
ByLayer
  9
$CECOLOR
 62
   256
  9
$CELTSCALE
 40
1.0
  9
$DISPSILH
 70
     0
  9
$DIMSCALE
 40
1.0
  9
$DIMASZ
 40
0.18
  9
$DIMEXO
 40
0.0625
  9
$DIMDLI
 40
0.38
  9
$DIMRND
 40
0.0
  9
$DIMDLE
 40
0.0
  9
$DIMEXE
 40
0.18
  9
$DIMTP
 40
0.0
  9
$DIMTM
 40
0.0
  9
$DIMTXT
 40
0.18
  9
$DIMCEN
 40
0.09
  9
$DIMTSZ
 40
0.0
  9
$DIMTOL
 70
     0
  9
$DIMLIM
 70
     0
  9
$DIMTIH
 70
     1
  9
$DIMTOH
 70
     1
  9
$DIMSE1
 70
     0
  9
$DIMSE2
 70
     0
  9
$DIMTAD
 70
     0
  9
$DIMZIN
 70
     0
  9
$DIMBLK
  1

  9
$DIMASO
 70
     1
  9
$DIMSHO
 70
     1
  9
$DIMPOST
  1

  9
$DIMAPOST
  1

  9
$DIMALT
 70
     0
  9
$DIMALTD
 70
     2
  9
$DIMALTF
 40
25.4
  9
$DIMLFAC
 40
1.0
  9
$DIMTOFL
 70
     0
  9
$DIMTVP
 40
0.0
  9
$DIMTIX
 70
     0
  9
$DIMSOXD
 70
     0
  9
$DIMSAH
 70
     0
  9
$DIMBLK1
  1

  9
$DIMBLK2
  1

  9
$DIMSTYLE
  2
Standard
  9
$DIMCLRD
 70
     0
  9
$DIMCLRE
 70
     0
  9
$DIMCLRT
 70
     0
  9
$DIMTFAC
 40
1.0
  9
$DIMGAP
 40
0.09
  9
$DIMJUST
 70
     0
  9
$DIMSD1
 70
     0
  9
$DIMSD2
 70
     0
  9
$DIMTOLJ
 70
     1
  9
$DIMTZIN
 70
     0
  9
$DIMALTZ
 70
     0
  9
$DIMALTTZ
 70
     0
  9
$DIMUPT
 70
     0
  9
$DIMDEC
 70
     4
  9
$DIMTDEC
 70
     4
  9
$DIMALTU
 70
     2
  9
$DIMALTTD
 70
     2
  9
$DIMTXSTY
  7
Standard
  9
$DIMAUNIT
 70
     0
  9
$DIMADEC
 70
     0
  9
$DIMALTRND
 40
0.0
  9
$DIMAZIN
 70
     0
  9
$DIMDSEP
 70
    46
  9
$DIMATFIT
 70
     3
  9
$DIMFRAC
 70
     0
  9
$DIMLDRBLK
  1

  9
$DIMLUNIT
 70
     2
  9
$DIMLWD
 70
    -2
  9
$DIMLWE
 70
    -2
  9
$DIMTMOVE
 70
     0
  9
$DIMFXL
 40
1.0
  9
$DIMFXLON
 70
     0
  9
$DIMJOGANG
 40
0.7853981633974483
  9
$DIMTFILL
 70
     0
  9
$DIMTFILLCLR
 70
     0
  9
$DIMARCSYM
 70
     0
  9
$DIMLTYPE
  6

  9
$DIMLTEX1
  6

  9
$DIMLTEX2
  6

  9
$LUNITS
 70
     2
  9
$LUPREC
 70
     4
  9
$SKETCHINC
 40
0.1
  9
$FILLETRAD
 40
0.5
  9
$AUNITS
 70
     0
  9
$AUPREC
 70
     0
  9
$MENU
  1
.
  9
$ELEVATION
 40
0.0
  9
$PELEVATION
 40
0.0
  9
$THICKNESS
 40
0.0
  9
$LIMCHECK
 70
     0
  9
$CHAMFERA
 40
0.0
  9
$CHAMFERB
 40
0.0
  9
$CHAMFERC
 40
0.0
  9
$CHAMFERD
 40
0.0
  9
$SKPOLY
 70
     0
  9
$TDCREATE
 40
2459072.675353715
  9
$TDUCREATE
 40
2459072.550353715
  9
$TDUPDATE
 40
2459072.675354259
  9
$TDUUPDATE
 40
2459072.550354259
  9
$TDINDWG
 40
0.0000000116
  9
$TDUSRTIMER
 40
0.0000000116
  9
$USRTIMER
 70
     1
  9
$ANGBASE
 50
0.0
  9
$ANGDIR
 70
     0
  9
$PDMODE
 70
     0
  9
$PDSIZE
 40
0.0
  9
$PLINEWID
 40
0.0
  9
$SPLFRAME
 70
     0
  9
$SPLINETYPE
 70
     6
  9
$SPLINESEGS
 70
     8
  9
$HANDSEED
  5
40C
  9
$SURFTAB1
 70
     6
  9
$SURFTAB2
 70
     6
  9
$SURFTYPE
 70
     6
  9
$SURFU
 70
     6
  9
$SURFV
 70
     6
  9
$UCSBASE
  2

  9
$UCSNAME
  2

  9
$UCSORG
 10
0.0
 20
0.0
 30
0.0
  9
$UCSXDIR
 10
1.0
 20
0.0
 30
0.0
  9
$UCSYDIR
 10
0.0
 20
1.0
 30
0.0
  9
$UCSORTHOREF
  2

  9
$UCSORTHOVIEW
 70
     0
  9
$UCSORGTOP
 10
0.0
 20
0.0
 30
0.0
  9
$UCSORGBOTTOM
 10
0.0
 20
0.0
 30
0.0
  9
$UCSORGLEFT
 10
0.0
 20
0.0
 30
0.0
  9
$UCSORGRIGHT
 10
0.0
 20
0.0
 30
0.0
  9
$UCSORGFRONT
 10
0.0
 20
0.0
 30
0.0
  9
$UCSORGBACK
 10
0.0
 20
0.0
 30
0.0
  9
$PUCSBASE
  2

  9
$PUCSNAME
  2

  9
$PUCSORG
 10
0.0
 20
0.0
 30
0.0
  9
$PUCSXDIR
 10
1.0
 20
0.0
 30
0.0
  9
$PUCSYDIR
 10
0.0
 20
1.0
 30
0.0
  9
$PUCSORTHOREF
  2

  9
$PUCSORTHOVIEW
 70
     0
  9
$PUCSORGTOP
 10
0.0
 20
0.0
 30
0.0
  9
$PUCSORGBOTTOM
 10
0.0
 20
0.0
 30
0.0
  9
$PUCSORGLEFT
 10
0.0
 20
0.0
 30
0.0
  9
$PUCSORGRIGHT
 10
0.0
 20
0.0
 30
0.0
  9
$PUCSORGFRONT
 10
0.0
 20
0.0
 30
0.0
  9
$PUCSORGBACK
 10
0.0
 20
0.0
 30
0.0
  9
$USERI1
 70
     0
  9
$USERI2
 70
     0
  9
$USERI3
 70
     0
  9
$USERI4
 70
     0
  9
$USERI5
 70
     0
  9
$USERR1
 40
0.0
  9
$USERR2
 40
0.0
  9
$USERR3
 40
0.0
  9
$USERR4
 40
0.0
  9
$USERR5
 40
0.0
  9
$WORLDVIEW
 70
     1
  9
$SHADEDGE
 70
     3
  9
$SHADEDIF
 70
    70
  9
$TILEMODE
 70
     1
  9
$MAXACTVP
 70
    64
  9
$PINSBASE
 10
0.0
 20
0.0
 30
0.0
  9
$PLIMCHECK
 70
     0
  9
$PEXTMIN
 10
1.000000000000000E+20
 20
1.000000000000000E+20
 30
1.000000000000000E+20
  9
$PEXTMAX
 10
-1.000000000000000E+20
 20
-1.000000000000000E+20
 30
-1.000000000000000E+20
  9
$PLIMMIN
 10
0.0
 20
0.0
  9
$PLIMMAX
 10
12.0
 20
9.0
  9
$UNITMODE
 70
     0
  9
$VISRETAIN
 70
     1
  9
$PLINEGEN
 70
     0
  9
$PSLTSCALE
 70
     1
  9
$TREEDEPTH
 70
  3020
  9
$CMLSTYLE
  2
Standard
  9
$CMLJUST
 70
     0
  9
$CMLSCALE
 40
1.0
  9
$PROXYGRAPHICS
 70
     1
  9
$MEASUREMENT
 70
     0
  9
$CELWEIGHT
370
    -1
  9
$ENDCAPS
280
     0
  9
$JOINSTYLE
280
     0
  9
$LWDISPLAY
290
     0
  9
$INSUNITS
 70
     4
  9
$HYPERLINKBASE
  1

  9
$STYLESHEET
  1

  9
$XEDIT
290
     1
  9
$CEPSNTYPE
380
     0
  9
$PSTYLEMODE
290
     1
  9
$FINGERPRINTGUID
  2
{576ca0bc-a4d5-4c9b-9bc4-39fffe2699f8}
  9
$VERSIONGUID
  2
{FAEB1C32-E019-11D5-929B-00C0DF256EC4}
  9
$EXTNAMES
290
     1
  9
$PSVPSCALE
 40
0.0
  9
$OLESTARTUP
290
     0
  9
$SORTENTS
280
   127
  9
$INDEXCTL
280
     0
  9
$HIDETEXT
280
     1
  9
$XCLIPFRAME
290
     0
  9
$HALOGAP
280
     0
  9
$OBSCOLOR
 70
   257
  9
$OBSLTYPE
280
     0
  9
$INTERSECTIONDISPLAY
280
     0
  9
$INTERSECTIONCOLOR
 70
   257
  9
$DIMASSOC
280
     2
  9
$PROJECTNAME
  1

  9
$CAMERADISPLAY
290
     0
  9
$LENSLENGTH
 40
50.0
  9
$CAMERAHEIGHT
 40
0.0
  9
$STEPSPERSEC
 40
2.0
  9
$STEPSIZE
 40
6.0
  9
$3DDWFPREC
 40
2.0
  9
$PSOLWIDTH
 40
0.25
  9
$PSOLHEIGHT
 40
4.0
  9
$LOFTANG1
 40
1.570796326794897
  9
$LOFTANG2
 40
1.570796326794897
  9
$LOFTMAG1
 40
0.0
  9
$LOFTMAG2
 40
0.0
  9
$LOFTPARAM
 70
     7
  9
$LOFTNORMALS
280
     1
  9
$LATITUDE
 40
37.795
  9
$LONGITUDE
 40
-122.394
  9
$NORTHDIRECTION
 40
0.0
  9
$TIMEZONE
 70
 -8000
  9
$LIGHTGLYPHDISPLAY
280
     1
  9
$TILEMODELIGHTSYNCH
280
     1
  9
$CMATERIAL
347
44
  9
$SOLIDHIST
280
     0
  9
$SHOWHIST
280
     1
  9
$DWFFRAME
280
     2
  9
$DGNFRAME
280
     2
  9
$REALWORLDSCALE
290
     1
  9
$INTERFERECOLOR
 62
   256
  9
$CSHADOW
280
     0
  9
$SHADOWPLANELOCATION
 40
0.0
  0
ENDSEC
  0
SECTION
  2
CLASSES
  0
CLASS
  1
ACDBDICTIONARYWDFLT
  2
AcDbDictionaryWithDefault
  3
ObjectDBX Classes
 90
        0
 91
        3
280
     0
281
     0
  0
CLASS
  1
VISUALSTYLE
  2
AcDbVisualStyle
  3
ObjectDBX Classes
 90
     4095
 91
        3
280
     0
281
     0
  0
CLASS
  1
MATERIAL
  2
AcDbMaterial
  3
ObjectDBX Classes
 90
     1153
 91
        3
280
     0
281
     0
  0
CLASS
  1
SCALE
  2
AcDbScale
  3
ObjectDBX Classes
 90
     1153
 91
        3
280
     0
281
     0
  0
CLASS
  1
TABLESTYLE
  2
AcDbTableStyle
  3
ObjectDBX Classes
 90
     4095
 91
        3
280
     0
281
     0
  0
CLASS
  1
MLEADERSTYLE
  2
AcDbMLeaderStyle
  3
ACDB_MLEADERSTYLE_CLASS
 90
     4095
 91
        3
280
     0
281
     0
  0
CLASS
  1
SUN
  2
AcDbSun
  3
SCENEOE
 90
     1153
 91
        3
280
     0
281
     0
  0
CLASS
  1
DICTIONARYVAR
  2
AcDbDictionaryVar
  3
ObjectDBX Classes
 90
        0
 91
        3
280
     0
281
     0
  0
CLASS
  1
CELLSTYLEMAP
  2
AcDbCellStyleMap
  3
ObjectDBX Classes
 90
     1152
 91
        3
280
     0
281
     0
  0
ENDSEC
  0
SECTION
  2
TABLES
  0
TABLE
  2
VPORT
  5
8
330
0
100
AcDbSymbolTable
 70
     1
  0
VPORT
  5
29
330
8
100
AcDbSymbolTableRecord
100
AcDbViewportTableRecord
  2
*Active
 70
     0
 10
0.0
 20
0.0
 11
1.0
 21
1.0
 12
-1637.500000016404
 22
1770.000000000001
 13
0.0
 23
0.0
 14
0.5
 24
0.5
 15
0.5
 25
0.5
 16
0.0
 26
0.0
 36
1.0
 17
0.0
 27
0.0
 37
0.0
 40
5701.000000000144
 41
0.0031146740494041
 42
50.0
 43
0.0
 44
0.0
 50
0.0
 51
0.0
 71
     0
 72
   100
 73
     1
 74
     3
 75
     0
 76
     0
 77
     0
 78
     0
281
     0
 65
     1
110
0.0
120
0.0
130
0.0
111
1.0
121
0.0
131
0.0
112
0.0
122
1.0
132
0.0
 79
     0
146
0.0
348
2F
 60
     3
 61
     5
292
     1
282
     1
141
0.0
142
0.0
 63
   250
361
6D
  0
ENDTAB
  0
TABLE
  2
LTYPE
  5
5
330
0
100
AcDbSymbolTable
 70
     5
  0
LTYPE
  5
14
330
5
100
AcDbSymbolTableRecord
100
AcDbLinetypeTableRecord
  2
ByBlock
 70
     0
  3

 72
    65
 73
     0
 40
0.0
  0
LTYPE
  5
15
330
5
100
AcDbSymbolTableRecord
100
AcDbLinetypeTableRecord
  2
ByLayer
 70
     0
  3

 72
    65
 73
     0
 40
0.0
  0
LTYPE
  5
16
330
5
100
AcDbSymbolTableRecord
100
AcDbLinetypeTableRecord
  2
Continuous
 70
     0
  3
Solid line
 72
    65
 73
     0
 40
0.0
  0
LTYPE
  5
AA
330
5
100
AcDbSymbolTableRecord
100
AcDbLinetypeTableRecord
  2
Yhtenäinen
 70
     0
  3

 72
    83
 73
     0
 40
0.0
  0
LTYPE
  5
11D
330
5
100
AcDbSymbolTableRecord
100
AcDbLinetypeTableRecord
  2
Pistekatko
 70
     0
  3

 72
    83
 73
     5
 40
2.7
 49
1.0
 74
     0
 49
-0.3
 74
     0
 49
0.1
 74
     0
 49
-0.3
 74
     0
 49
1.0
 74
     0
  0
LTYPE
  5
120
330
5
100
AcDbSymbolTableRecord
100
AcDbLinetypeTableRecord
  2
Yhtenäinen 2
 70
     0
  3

 72
    83
 73
     0
 40
0.0
  0
LTYPE
  5
1B4
330
5
100
AcDbSymbolTableRecord
100
AcDbLinetypeTableRecord
  2
Katkoviiva
 70
     0
  3

 72
    83
 73
     3
 40
2.2
 49
0.6
 74
     0
 49
-1.0
 74
     0
 49
0.6
 74
     0
  0
ENDTAB
  0
TABLE
  2
LAYER
  5
2
330
0
100
AcDbSymbolTable
 70
    32
  0
LAYER
  5
10
330
2
100
AcDbSymbolTableRecord
100
AcDbLayerTableRecord
  2
0
 70
     0
 62
     7
  6
Continuous
370
    -3
390
F
347
46
  0
LAYER
  5
79
330
2
100
AcDbSymbolTableRecord
100
AcDbLayerTableRecord
  2
Sekalaiset
 70
     0
 62
    18
420
        0
  6
Continuous
370
    35
390
F
347
46
  0
LAYER
  5
7A
330
2
100
AcDbSymbolTableRecord
100
AcDbLayerTableRecord
  2
Muotoviivat
 70
     0
 62
    18
420
        0
  6
Continuous
370
    35
390
F
347
46
  0
LAYER
  5
7B
330
2
100
AcDbSymbolTableRecord
100
AcDbLayerTableRecord
  2
Muut viivat
 70
     0
 62
    18
420
        0
  6
Continuous
370
    35
390
F
347
46
  0
LAYER
  5
7C
330
2
100
AcDbSymbolTableRecord
100
AcDbLayerTableRecord
  2
Leikkausmerkinnät
 70
     0
 62
    18
420
        0
  6
Continuous
370
    35
390
F
347
46
  0
LAYER
  5
7D
330
2
100
AcDbSymbolTableRecord
100
AcDbLayerTableRecord
  2
Tekstit
 70
     0
 62
    18
420
        0
  6
Continuous
370
    35
390
F
347
46
  0
LAYER
  5
7E
330
2
100
AcDbSymbolTableRecord
100
AcDbLayerTableRecord
  2
Osanumerot
 70
     0
 62
    18
420
        0
  6
Continuous
370
    35
390
F
347
46
  0
LAYER
  5
7F
330
2
100
AcDbSymbolTableRecord
100
AcDbLayerTableRecord
  2
Mitat
 70
     0
 62
    18
420
        0
  6
Continuous
370
    35
390
F
347
46
  0
LAYER
  5
80
330
2
100
AcDbSymbolTableRecord
100
AcDbLayerTableRecord
  2
Hitsimerkit ym.
 70
     0
 62
    18
420
        0
  6
Continuous
370
    35
390
F
347
46
  0
LAYER
  5
81
330
2
100
AcDbSymbolTableRecord
100
AcDbLayerTableRecord
  2
Kuvio
 70
     0
 62
    18
420
        0
  6
Continuous
370
    35
390
F
347
46
  0
LAYER
  5
82
330
2
100
AcDbSymbolTableRecord
100
AcDbLayerTableRecord
  2
Lomakkeet
 70
     0
 62
    18
420
        0
  6
Continuous
370
    35
390
F
347
46
  0
LAYER
  5
83
330
2
100
AcDbSymbolTableRecord
100
AcDbLayerTableRecord
  2
Rasterikuvat
 70
     0
 62
    18
420
        0
  6
Continuous
370
    35
390
F
347
46
  0
LAYER
  5
84
330
2
100
AcDbSymbolTableRecord
100
AcDbLayerTableRecord
  2
Symbolien ehdot
 70
     0
 62
   -18
420
        0
  6
Continuous
370
    35
390
F
347
46
  0
LAYER
  5
85
330
2
100
AcDbSymbolTableRecord
100
AcDbLayerTableRecord
  2
Ehdot
 70
     0
 62
   -18
420
        0
  6
Continuous
370
    35
390
F
347
46
  0
LAYER
  5
86
330
2
100
AcDbSymbolTableRecord
100
AcDbLayerTableRecord
  2
Punakynä
 70
     0
 62
    18
420
        0
  6
Continuous
370
    35
390
F
347
46
  0
LAYER
  5
87
330
2
100
AcDbSymbolTableRecord
100
AcDbLayerTableRecord
  2
Englanninkieliset tekstit
 70
     0
 62
   -18
420
        0
  6
Continuous
370
    35
390
F
347
46
  0
LAYER
  5
88
330
2
100
AcDbSymbolTableRecord
100
AcDbLayerTableRecord
  2
Vieraskieliset tekstit
 70
     0
 62
   -18
420
        0
  6
Continuous
370
    35
390
F
347
46
  0
LAYER
  5
89
330
2
100
AcDbSymbolTableRecord
100
AcDbLayerTableRecord
  2
Peittotasokuvio
 70
     0
 62
   -18
420
        0
  6
Continuous
370
    35
390
F
347
46
  0
LAYER
  5
8A
330
2
100
AcDbSymbolTableRecord
100
AcDbLayerTableRecord
  2
Osasuurennosalueen rajat
 70
     0
 62
    18
420
        0
  6
Continuous
370
    35
390
F
347
46
  0
LAYER
  5
8B
330
2
100
AcDbSymbolTableRecord
100
AcDbLayerTableRecord
  2
Alikuvien leikkaukset
 70
     0
 62
    18
420
        0
  6
Continuous
370
    35
390
F
347
46
  0
LAYER
  5
8C
330
2
100
AcDbSymbolTableRecord
100
AcDbLayerTableRecord
  2
Tuumamitat
 70
     0
 62
   -18
420
        0
  6
Continuous
370
    35
390
F
347
46
  0
LAYER
  5
8D
330
2
100
AcDbSymbolTableRecord
100
AcDbLayerTableRecord
  2
Punakynä 1
 70
     0
 62
    18
420
        0
  6
Continuous
370
    35
390
F
347
46
  0
LAYER
  5
8E
330
2
100
AcDbSymbolTableRecord
100
AcDbLayerTableRecord
  2
Punakynä 2
 70
     0
 62
    18
420
        0
  6
Continuous
370
    35
390
F
347
46
  0
LAYER
  5
8F
330
2
100
AcDbSymbolTableRecord
100
AcDbLayerTableRecord
  2
Punakynä 3
 70
     0
 62
    18
420
        0
  6
Continuous
370
    35
390
F
347
46
  0
LAYER
  5
90
330
2
100
AcDbSymbolTableRecord
100
AcDbLayerTableRecord
  2
Punakynä 4
 70
     0
 62
    18
420
        0
  6
Continuous
370
    35
390
F
347
46
  0
LAYER
  5
91
330
2
100
AcDbSymbolTableRecord
100
AcDbLayerTableRecord
  2
Punakynä 5
 70
     0
 62
    18
420
        0
  6
Continuous
370
    35
390
F
347
46
  0
LAYER
  5
92
330
2
100
AcDbSymbolTableRecord
100
AcDbLayerTableRecord
  2
Punakynä 6
 70
     0
 62
    18
420
        0
  6
Continuous
370
    35
390
F
347
46
  0
LAYER
  5
93
330
2
100
AcDbSymbolTableRecord
100
AcDbLayerTableRecord
  2
Punakynä 7
 70
     0
 62
    18
420
        0
  6
Continuous
370
    35
390
F
347
46
  0
LAYER
  5
94
330
2
100
AcDbSymbolTableRecord
100
AcDbLayerTableRecord
  2
Punakynä 8
 70
     0
 62
    18
420
        0
  6
Continuous
370
    35
390
F
347
46
  0
LAYER
  5
95
330
2
100
AcDbSymbolTableRecord
100
AcDbLayerTableRecord
  2
Punakynä 9
 70
     0
 62
    18
420
        0
  6
Continuous
370
    35
390
F
347
46
  0
LAYER
  5
96
330
2
100
AcDbSymbolTableRecord
100
AcDbLayerTableRecord
  2
Punakynä 10
 70
     0
 62
    18
420
        0
  6
Continuous
370
    35
390
F
347
46
  0
LAYER
  5
2C1
330
2
100
AcDbSymbolTableRecord
100
AcDbLayerTableRecord
  2
Defpoints
 70
     0
 62
     7
  6
Continuous
290
     0
370
    -3
390
F
347
46
  0
ENDTAB
  0
TABLE
  2
STYLE
  5
3
330
0
100
AcDbSymbolTable
 70
     2
  0
STYLE
  5
11
330
3
100
AcDbSymbolTableRecord
100
AcDbTextStyleTableRecord
  2
Standard
 70
     0
 40
0.0
 41
1.0
 50
0.0
 71
     0
 42
0.2
  3
txt
  4

  0
STYLE
  5
70
330
3
100
AcDbSymbolTableRecord
100
AcDbTextStyleTableRecord
  2
Arial
 70
     0
 40
0.0
 41
1.0
 50
0.0
 71
     0
 42
0.2
  3
arial.ttf
  4

1001
ACAD
1000
Arial
1071
       34
  0
ENDTAB
  0
TABLE
  2
VIEW
  5
6
330
0
100
AcDbSymbolTable
 70
     0
  0
ENDTAB
  0
TABLE
  2
UCS
  5
7
330
0
100
AcDbSymbolTable
 70
     0
  0
ENDTAB
  0
TABLE
  2
APPID
  5
9
330
0
100
AcDbSymbolTable
 70
     3
  0
APPID
  5
12
330
9
100
AcDbSymbolTableRecord
100
AcDbRegAppTableRecord
  2
ACAD
 70
     0
  0
APPID
  5
6E
330
9
100
AcDbSymbolTableRecord
100
AcDbRegAppTableRecord
  2
Vertex
 70
     0
  0
APPID
  5
404
330
9
100
AcDbSymbolTableRecord
100
AcDbRegAppTableRecord
  2
ACAD_MLEADERVER
 70
     0
  0
ENDTAB
  0
TABLE
  2
DIMSTYLE
  5
A
330
0
100
AcDbSymbolTable
 70
     3
100
AcDbDimStyleTable
  0
DIMSTYLE
105
27
330
A
100
AcDbSymbolTableRecord
100
AcDbDimStyleTableRecord
  2
Standard
 70
     0
178
     0
340
11
  0
DIMSTYLE
105
6F
102
{ACAD_REACTORS
330
2C0
330
2CF
330
2DD
330
2EB
102
}
330
A
100
AcDbSymbolTableRecord
100
AcDbDimStyleTableRecord
  2
Vertex Style
 70
     0
 40
20.0
 41
3.6
 44
1.8
 46
1.8
 73
     0
 74
     0
 77
     1
 78
     8
 79
     2
146
0.65
147
1.7
172
     1
173
     1
178
     0
179
     1
271
     1
340
70
343
71
344
71
372
    25
  0
DIMSTYLE
105
78
330
A
100
AcDbSymbolTableRecord
100
AcDbDimStyleTableRecord
  2
Vertex Style (Inches)
 70
     0
 40
20.0
 41
3.6
 44
1.8
 46
1.8
 73
     0
 74
     0
 77
     1
 79
     2
144
0.0393700787401575
146
0.65
147
1.7
172
     1
173
     1
178
     0
179
     1
276
     2
277
     4
340
70
343
71
344
71
372
    25
  0
ENDTAB
  0
TABLE
  2
BLOCK_RECORD
  5
1
330
0
100
AcDbSymbolTable
 70
     9
  0
BLOCK_RECORD
  5
1F
330
1
100
AcDbSymbolTableRecord
100
AcDbBlockTableRecord
  2
*Model_Space
340
22
 70
     0
280
     1
281
     0
  0
BLOCK_RECORD
  5
1B
330
1
100
AcDbSymbolTableRecord
100
AcDbBlockTableRecord
  2
*Paper_Space
340
1E
 70
     0
280
     1
281
     0
  0
BLOCK_RECORD
  5
23
330
1
100
AcDbSymbolTableRecord
100
AcDbBlockTableRecord
  2
*Paper_Space0
340
26
 70
     0
280
     1
281
     0
  0
BLOCK_RECORD
  5
71
330
1
100
AcDbSymbolTableRecord
100
AcDbBlockTableRecord
  2
_Closed
340
0
102
{BLKREFS
331
2C9
331
2C8
331
2D7
331
2D6
331
2E5
331
2E4
331
2F3
331
2F2
102
}
 70
     0
280
     1
281
     0
  0
BLOCK_RECORD
  5
A0
330
1
100
AcDbSymbolTableRecord
100
AcDbBlockTableRecord
  2
J60000_upot_laatikko_kok_3_282f335d-dbca-4a4d-9363-f0585a90d1c7
340
0
102
{BLKREFS
331
2FE
102
}
 70
     0
280
     1
281
     0
  0
BLOCK_RECORD
  5
A3
330
1
100
AcDbSymbolTableRecord
100
AcDbBlockTableRecord
  2
J60000_upot_laatikko_kok_4_fc17a198-2aab-4f35-b523-73cf287336ac
340
0
102
{BLKREFS
331
2FF
102
}
 70
     0
280
     1
281
     0
  0
BLOCK_RECORD
  5
A6
330
1
100
AcDbSymbolTableRecord
100
AcDbBlockTableRecord
  2
J60000_upot_laatikko_kok_5_68ffd776-606c-477d-a453-da44f339cd9b
340
0
102
{BLKREFS
331
300
102
}
 70
     0
280
     1
281
     0
  0
BLOCK_RECORD
  5
2C2
330
1
100
AcDbSymbolTableRecord
100
AcDbBlockTableRecord
  2
*D8
340
0
 70
     0
280
     1
281
     0
  0
BLOCK_RECORD
  5
2D0
330
1
100
AcDbSymbolTableRecord
100
AcDbBlockTableRecord
  2
*D9
340
0
 70
     0
280
     1
281
     0
  0
BLOCK_RECORD
  5
2DE
330
1
100
AcDbSymbolTableRecord
100
AcDbBlockTableRecord
  2
*D10
340
0
 70
     0
280
     1
281
     0
  0
BLOCK_RECORD
  5
2EC
330
1
100
AcDbSymbolTableRecord
100
AcDbBlockTableRecord
  2
*D11
340
0
 70
     0
280
     1
281
     0
  0
ENDTAB
  0
ENDSEC
  0
SECTION
  2
BLOCKS
  0
BLOCK
  5
20
330
1F
100
AcDbEntity
  8
0
100
AcDbBlockBegin
  2
*Model_Space
 70
     0
 10
0.0
 20
0.0
 30
0.0
  3
*Model_Space
  1

  0
ENDBLK
  5
21
330
1F
100
AcDbEntity
  8
0
100
AcDbBlockEnd
  0
BLOCK
  5
1C
330
1B
100
AcDbEntity
 67
     1
  8
0
100
AcDbBlockBegin
  2
*Paper_Space
 70
     0
 10
0.0
 20
0.0
 30
0.0
  3
*Paper_Space
  1

  0
ENDBLK
  5
1D
330
1B
100
AcDbEntity
 67
     1
  8
0
100
AcDbBlockEnd
  0
BLOCK
  5
24
330
23
100
AcDbEntity
  8
0
100
AcDbBlockBegin
  2
*Paper_Space0
 70
     0
 10
0.0
 20
0.0
 30
0.0
  3
*Paper_Space0
  1

  0
ENDBLK
  5
25
330
23
100
AcDbEntity
  8
0
100
AcDbBlockEnd
  0
BLOCK
  5
72
330
71
100
AcDbEntity
  8
0
100
AcDbBlockBegin
  2
_Closed
 70
     0
 10
0.0
 20
0.0
 30
0.0
  3
_Closed
  1

  0
LINE
  5
74
330
71
100
AcDbEntity
  8
0
  6
ByBlock
 62
     0
370
    -2
100
AcDbLine
 10
-1.0
 20
0.166667
 30
0.0
 11
0.0
 21
0.0
 31
0.0
  0
LINE
  5
75
330
71
100
AcDbEntity
  8
0
  6
ByBlock
 62
     0
370
    -2
100
AcDbLine
 10
0.0
 20
0.0
 30
0.0
 11
-1.0
 21
-0.166667
 31
0.0
  0
LINE
  5
76
330
71
100
AcDbEntity
  8
0
  6
ByBlock
 62
     0
370
    -2
100
AcDbLine
 10
-1.0
 20
0.166667
 30
0.0
 11
-1.0
 21
-0.166667
 31
0.0
  0
LINE
  5
77
330
71
100
AcDbEntity
  8
0
  6
ByBlock
 62
     0
370
    -2
100
AcDbLine
 10
0.0
 20
0.0
 30
0.0
 11
-1.0
 21
0.0
 31
0.0
  0
ENDBLK
  5
73
330
71
100
AcDbEntity
  8
0
100
AcDbBlockEnd
  0
BLOCK
  5
A1
330
A0
100
AcDbEntity
  8
0
100
AcDbBlockBegin
  2
J60000_upot_laatikko_kok_3_282f335d-dbca-4a4d-9363-f0585a90d1c7
 70
     0
 10
0.0
 20
0.0
 30
0.0
  3
J60000_upot_laatikko_kok_3_282f335d-dbca-4a4d-9363-f0585a90d1c7
  1

  0
LINE
  5
A9
330
A0
100
AcDbEntity
  8
Muotoviivat
  6
Yhtenäinen
 62
     7
 48
60.0
370
    50
100
AcDbLine
 10
-246.8428359948707
 20
493.0000000000005
 30
0.0
 11
-246.8428359948707
 21
500.0000000000001
 31
0.0
  0
LINE
  5
AB
330
A0
100
AcDbEntity
  8
Muotoviivat
  6
Yhtenäinen
 62
     7
 48
60.0
370
    50
100
AcDbLine
 10
-246.8428359948707
 20
865.0000000000001
 30
0.0
 11
-246.8428359948707
 21
871.9999999999986
 31
0.0
  0
LINE
  5
AC
330
A0
100
AcDbEntity
  8
Muotoviivat
  6
Yhtenäinen
 62
     7
 48
60.0
370
    50
100
AcDbLine
 10
270.041477900047
 20
493.0
 30
0.0
 11
-270.0405128939734
 21
493.0
 31
0.0
  0
LINE
  5
AD
330
A0
100
AcDbEntity
  8
Muotoviivat
  6
Yhtenäinen
 62
     7
 48
60.0
370
    50
100
AcDbLine
 10
-270.0405128939748
 20
872.0000000000002
 30
0.0
 11
-270.0405128939748
 21
493.0
 31
0.0
  0
LINE
  5
AE
330
A0
100
AcDbEntity
  8
Muotoviivat
  6
Yhtenäinen
 62
     7
 48
60.0
370
    50
100
AcDbLine
 10
287.5085329160997
 20
905.0000000000002
 30
0.0
 11
-287.5085329160997
 21
905.0000000000002
 31
0.0
  0
LINE
  5
AF
330
A0
100
AcDbEntity
  8
Muotoviivat
  6
Yhtenäinen
 62
     7
 48
60.0
370
    50
100
AcDbLine
 10
-287.5085329160997
 20
460.0000000000002
 30
0.0
 11
287.5085329160997
 21
460.0000000000002
 31
0.0
  0
LINE
  5
B0
330
A0
100
AcDbEntity
  8
Muotoviivat
  6
Yhtenäinen
 62
     7
 48
60.0
370
    50
100
AcDbLine
 10
246.8436962868799
 20
493.0000000000005
 30
0.0
 11
246.8436962868799
 21
500.0000000000001
 31
0.0
  0
LINE
  5
B1
330
A0
100
AcDbEntity
  8
Muotoviivat
  6
Yhtenäinen
 62
     7
 48
60.0
370
    50
100
AcDbLine
 10
246.8436962868799
 20
865.0000000000001
 30
0.0
 11
246.8436962868799
 21
871.9999999999986
 31
0.0
  0
LINE
  5
B2
330
A0
100
AcDbEntity
  8
Muotoviivat
  6
Yhtenäinen
 62
     7
 48
60.0
370
    50
100
AcDbLine
 10
287.5085329160997
 20
460.0000000000002
 30
0.0
 11
287.5085329160997
 21
598.9408993527392
 31
0.0
  0
LINE
  5
B3
330
A0
100
AcDbEntity
  8
Muotoviivat
  6
Yhtenäinen
 62
     7
 48
60.0
370
    50
100
AcDbLine
 10
287.5085329160997
 20
741.0591033924397
 30
0.0
 11
287.5085329160997
 21
905.0000000000002
 31
0.0
  0
LINE
  5
B4
330
A0
100
AcDbEntity
  8
Muotoviivat
  6
Yhtenäinen
 62
     7
 48
60.0
370
    50
100
AcDbLine
 10
270.041477900047
 20
872.0000000000002
 30
0.0
 11
-270.0405128939734
 21
872.0000000000002
 31
0.0
  0
LINE
  5
B5
330
A0
100
AcDbEntity
  8
Muotoviivat
  6
Yhtenäinen
 62
     7
 48
60.0
370
    50
100
AcDbLine
 10
270.0414779000482
 20
493.0
 30
0.0
 11
270.0414779000482
 21
680.0000000000002
 31
0.0
  0
LINE
  5
B6
330
A0
100
AcDbEntity
  8
Muotoviivat
  6
Yhtenäinen
 62
     7
 48
60.0
370
    50
100
AcDbLine
 10
270.0414779000483
 20
710.0000000000002
 30
0.0
 11
270.0414779000483
 21
872.0000000000002
 31
0.0
  0
LINE
  5
B7
330
A0
100
AcDbEntity
  8
Muotoviivat
  6
Yhtenäinen
 62
     7
 48
60.0
370
    50
100
AcDbLine
 10
-287.5085329160997
 20
460.0000000000002
 30
0.0
 11
-287.5085329160997
 21
905.0000000000002
 31
0.0
  0
LINE
  5
B8
330
A0
100
AcDbEntity
  8
Muotoviivat
  6
Yhtenäinen
 62
     7
 48
60.0
370
    50
100
AcDbLine
 10
264.6870256937021
 20
865.0000000000002
 30
0.0
 11
-264.6860507329811
 21
865.0000000000002
 31
0.0
  0
LINE
  5
B9
330
A0
100
AcDbEntity
  8
Muotoviivat
  6
Yhtenäinen
 62
     7
 48
60.0
370
    50
100
AcDbLine
 10
-238.8542969316492
 20
540.0000000000002
 30
0.0
 11
-238.8542969316492
 21
825.0000000000002
 31
0.0
  0
LINE
  5
C7
330
A0
100
AcDbEntity
  8
Muotoviivat
  6
Yhtenäinen
 62
     7
 48
60.0
370
    50
100
AcDbLine
 10
238.855436311211
 20
540.0000000000002
 30
0.0
 11
-238.8542969316488
 21
540.0000000000002
 31
0.0
  0
LINE
  5
C8
330
A0
100
AcDbEntity
  8
Muotoviivat
  6
Yhtenäinen
 62
     7
 48
60.0
370
    50
100
AcDbLine
 10
-264.6860507329813
 20
500.0000000000002
 30
0.0
 11
-264.6860507329813
 21
865.0000000000002
 31
0.0
  0
LINE
  5
C9
330
A0
100
AcDbEntity
  8
Muotoviivat
  6
Yhtenäinen
 62
     7
 48
60.0
370
    50
100
AcDbLine
 10
238.855436311211
 20
825.0000000000002
 30
0.0
 11
238.855436311211
 21
540.0000000000002
 31
0.0
  0
LINE
  5
CA
330
A0
100
AcDbEntity
  8
Muotoviivat
  6
Yhtenäinen
 62
     7
 48
60.0
370
    50
100
AcDbLine
 10
264.6870256937021
 20
500.0000000000002
 30
0.0
 11
264.6870256937021
 21
695.0000000000002
 31
0.0
  0
LINE
  5
CB
330
A0
100
AcDbEntity
  8
Muotoviivat
  6
Yhtenäinen
 62
     7
 48
60.0
370
    50
100
AcDbLine
 10
264.6870256937021
 20
705.0000000000002
 30
0.0
 11
264.6870256937021
 21
865.0000000000002
 31
0.0
  0
LINE
  5
CC
330
A0
100
AcDbEntity
  8
Muotoviivat
  6
Yhtenäinen
 62
     7
 48
60.0
370
    50
100
AcDbLine
 10
236.6506168991074
 20
540.0000000000002
 30
0.0
 11
236.6506168991074
 21
825.0000000000001
 31
0.0
  0
LINE
  5
CD
330
A0
100
AcDbEntity
  8
Muotoviivat
  6
Yhtenäinen
 62
     7
 48
60.0
370
    50
100
AcDbLine
 10
-236.6494880368955
 20
540.0000000000002
 30
0.0
 11
-236.6494880368955
 21
825.0000000000001
 31
0.0
  0
LINE
  5
CE
330
A0
100
AcDbEntity
  8
Muotoviivat
  6
Yhtenäinen
 62
     7
 48
60.0
370
    50
100
AcDbLine
 10
-238.8542969316491
 20
825.0000000000002
 30
0.0
 11
238.855436311211
 21
825.0000000000002
 31
0.0
  0
ELLIPSE
  5
CF
330
A0
100
AcDbEntity
  8
Muotoviivat
  6
Yhtenäinen
 62
     7
 48
60.0
370
    50
100
AcDbEllipse
 10
291.8497032061643
 20
601.0000000000002
 30
0.0
 11
-10.51767492508043
 21
10.51767492508043
 31
0.0
210
0.0
220
0.0
230
1.0
 40
0.3063006000351439
 41
0.2918215315501229
 42
3.433414185139916
  0
LINE
  5
D0
330
A0
100
AcDbEntity
  8
Muotoviivat
  6
Yhtenäinen
 62
     7
 48
60.0
370
    50
100
AcDbLine
 10
268.3380621619706
 20
680.0000000000002
 30
0.0
 11
268.3380621619706
 21
695.0000000000002
 31
0.0
  0
LINE
  5
D1
330
A0
100
AcDbEntity
  8
Muotoviivat
  6
Yhtenäinen
 62
     7
 48
60.0
370
    50
100
AcDbLine
 10
268.3380621619706
 20
695.0000000000002
 30
0.0
 11
268.3380621619706
 21
705.0000000000002
 31
0.0
  0
LINE
  5
D2
330
A0
100
AcDbEntity
  8
Muotoviivat
  6
Yhtenäinen
 62
     7
 48
60.0
370
    50
100
AcDbLine
 10
280.7648768304834
 20
680.0000000000002
 30
0.0
 11
268.3380621619706
 21
680.0000000000002
 31
0.0
  0
LINE
  5
D3
330
A0
100
AcDbEntity
  8
Muotoviivat
  6
Yhtenäinen
 62
     7
 48
60.0
370
    50
100
AcDbLine
 10
280.8498639507985
 20
710.0000000000002
 30
0.0
 11
280.7648768304834
 21
710.0000000000002
 31
0.0
  0
LINE
  5
D4
330
A0
100
AcDbEntity
  8
Muotoviivat
  6
Yhtenäinen
 62
     7
 48
60.0
370
    50
100
AcDbLine
 10
268.3380621619706
 20
695.0000000000002
 30
0.0
 11
267.217948856635
 21
695.0000000000002
 31
0.0
  0
LINE
  5
D5
330
A0
100
AcDbEntity
  8
Muotoviivat
  6
Yhtenäinen
 62
     7
 48
60.0
370
    50
100
AcDbLine
 10
267.217948856635
 20
695.0000000000002
 30
0.0
 11
267.217948856635
 21
705.0000000000002
 31
0.0
  0
LINE
  5
D6
330
A0
100
AcDbEntity
  8
Muotoviivat
  6
Yhtenäinen
 62
     7
 48
60.0
370
    50
100
AcDbLine
 10
280.7648768304834
 20
710.0000000000002
 30
0.0
 11
280.7648768304834
 21
680.0000000000002
 31
0.0
  0
LINE
  5
D7
330
A0
100
AcDbEntity
  8
Muotoviivat
  6
Yhtenäinen
 62
     7
 48
60.0
370
    50
100
AcDbLine
 10
268.3380621619706
 20
710.0000000000002
 30
0.0
 11
280.7648768304834
 21
710.0000000000002
 31
0.0
  0
LINE
  5
D8
330
A0
100
AcDbEntity
  8
Muotoviivat
  6
Yhtenäinen
 62
     7
 48
60.0
370
    50
100
AcDbLine
 10
267.217948856635
 20
705.0000000000002
 30
0.0
 11
268.3380621619706
 21
705.0000000000002
 31
0.0
  0
LINE
  5
D9
330
A0
100
AcDbEntity
  8
Muotoviivat
  6
Yhtenäinen
 62
     7
 48
60.0
370
    50
100
AcDbLine
 10
261.837489762427
 20
705.0000000000002
 30
0.0
 11
267.217948856635
 21
705.0000000000002
 31
0.0
  0
LINE
  5
DA
330
A0
100
AcDbEntity
  8
Muotoviivat
  6
Yhtenäinen
 62
     7
 48
60.0
370
    50
100
AcDbLine
 10
268.3380621619706
 20
705.0000000000002
 30
0.0
 11
268.3380621619706
 21
710.0000000000002
 31
0.0
  0
ARC
  5
DB
330
A0
100
AcDbEntity
  8
Muotoviivat
  6
Yhtenäinen
 62
     7
 48
60.0
370
    50
100
AcDbCircle
 10
123.0
 20
184.0
 30
0.0
 40
2.000000000000028
100
AcDbArc
 50
43.48081175535597
 51
90.0
  0
LINE
  5
DC
330
A0
100
AcDbEntity
  8
Muotoviivat
  6
Yhtenäinen
 62
     7
 48
60.0
370
    50
100
AcDbLine
 10
261.837489762427
 20
695.0000000000002
 30
0.0
 11
267.217948856635
 21
695.0000000000002
 31
0.0
  0
LINE
  5
DD
330
A0
100
AcDbEntity
  8
Muotoviivat
  6
Yhtenäinen
 62
     7
 48
60.0
370
    50
100
AcDbLine
 10
-264.6860507329811
 20
500.0000000000002
 30
0.0
 11
264.6870256937021
 21
500.0000000000002
 31
0.0
  0
ELLIPSE
  5
DE
330
A0
100
AcDbEntity
  8
Muotoviivat
  6
Yhtenäinen
 62
     7
 48
60.0
370
    50
100
AcDbEllipse
 10
123.0
 20
58.0
 30
0.0
 11
2.0
 21
0.0
 31
0.0
210
0.0
220
0.0
230
1.0
 40
1.0
 41
5.524301980608885
 42
6.283185307179586
  0
LWPOLYLINE
  5
DF
330
A0
100
AcDbEntity
  8
Muotoviivat
  6
Yhtenäinen
 62
     7
 48
60.0
370
    50
100
AcDbPolyline
 90
        2
 70
     0
 43
0.0
 10
-124.0753630097157
 20
185.0
 10
-124.4512097178686
 20
185.3762232212715
  0
ELLIPSE
  5
E0
330
A0
100
AcDbEntity
  8
Muotoviivat
  6
Yhtenäinen
 62
     7
 48
60.0
370
    50
100
AcDbEllipse
 10
-122.9999999999991
 20
184.0
 30
0.0
 11
-2.000000000001364
 21
0.0
 31
0.0
210
0.0
220
0.0
230
1.0
 40
0.9999999999993179
 41
5.524301980608968
 42
6.283185307179586
  0
LWPOLYLINE
  5
EE
330
A0
100
AcDbEntity
  8
Muotoviivat
  6
Yhtenäinen
 62
     7
 48
60.0
370
    50
100
AcDbPolyline
 90
        2
 70
     0
 43
0.0
 10
124.0753630097156
 20
56.99999999999996
 10
124.4512097178683
 20
56.62377677872841
  0
LWPOLYLINE
  5
EF
330
A0
100
AcDbEntity
  8
Muotoviivat
  6
Yhtenäinen
 62
     7
 48
60.0
370
    50
100
AcDbPolyline
 90
        2
 70
     0
 43
0.0
 10
124.4512097178683
 20
185.3762232212716
 10
124.0753630097157
 20
185.0
  0
ELLIPSE
  5
F0
330
A0
100
AcDbEntity
  8
Muotoviivat
  6
Yhtenäinen
 62
     7
 48
60.0
370
    50
100
AcDbEllipse
 10
291.8497032061643
 20
739.0000000000002
 30
0.0
 11
10.51767492508048
 21
10.51767492508043
 31
0.0
210
0.0
220
0.0
230
1.0
 40
0.306300600035143
 41
5.991363775629491
 42
9.132956429219266
  0
LINE
  5
F1
330
A0
100
AcDbEntity
  8
Muotoviivat
  6
Yhtenäinen
 62
     7
 48
60.0
370
    50
100
AcDbLine
 10
-124.0753630097156
 20
57.0
 30
0.0
 11
-124.0753630097156
 21
185.0
 31
0.0
  0
ARC
  5
F2
330
A0
100
AcDbEntity
  8
Muotoviivat
  6
Yhtenäinen
 62
     7
 48
60.0
370
    50
100
AcDbCircle
 10
123.0
 20
184.0
 30
0.0
 40
2.00000000000002
100
AcDbArc
 50
22.55465747629323
 51
26.88588052245701
  0
ARC
  5
F3
330
A0
100
AcDbEntity
  8
Muotoviivat
  6
Yhtenäinen
 62
     7
 48
60.0
370
    50
100
AcDbCircle
 10
123.0
 20
184.0
 30
0.0
 40
2.000000000000007
100
AcDbArc
 50
33.88932621021608
 51
38.75686139488398
  0
ARC
  5
F4
330
A0
100
AcDbEntity
  8
Muotoviivat
  6
Yhtenäinen
 62
     7
 48
60.0
370
    50
100
AcDbCircle
 10
123.0
 20
184.0
 30
0.0
 40
2.000000000000027
100
AcDbArc
 50
44.73699719597601
 51
50.41965484169267
  0
ARC
  5
F5
330
A0
100
AcDbEntity
  8
Muotoviivat
  6
Yhtenäinen
 62
     7
 48
60.0
370
    50
100
AcDbCircle
 10
123.0
 20
184.0
 30
0.0
 40
2.000000000000012
100
AcDbArc
 50
56.51180077510132
 51
57.68775045365084
  0
ARC
  5
F6
330
A0
100
AcDbEntity
  8
Muotoviivat
  6
Yhtenäinen
 62
     7
 48
60.0
370
    50
100
AcDbCircle
 10
123.0
 20
184.0
 30
0.0
 40
2.000000000000003
100
AcDbArc
 50
67.69022609778844
 51
69.05923214486249
  0
ARC
  5
F7
330
A0
100
AcDbEntity
  8
Muotoviivat
  6
Yhtenäinen
 62
     7
 48
60.0
370
    50
100
AcDbCircle
 10
123.0
 20
184.0
 30
0.0
 40
2.00000000000001
100
AcDbArc
 50
79.09546525355377
 51
79.76589384511901
  0
ARC
  5
F8
330
A0
100
AcDbEntity
  8
Muotoviivat
  6
Yhtenäinen
 62
     7
 48
60.0
370
    50
100
AcDbCircle
 10
123.0
 20
184.0
 30
0.0
 40
2.000000000000001
100
AcDbArc
 50
89.99913355834263
 51
90.0
  0
LINE
  5
F9
330
A0
100
AcDbEntity
  8
Muotoviivat
  6
Yhtenäinen
 62
     7
 48
60.0
370
    50
100
AcDbLine
 10
-125.0000000000005
 20
184.0
 30
0.0
 11
-125.0000000000005
 21
58.0
 31
0.0
  0
LWPOLYLINE
  5
FA
330
A0
100
AcDbEntity
  8
Muotoviivat
  6
Yhtenäinen
 62
     7
 48
60.0
370
    50
100
AcDbPolyline
 90
        2
 70
     0
 43
0.0
 10
-124.4512097178685
 20
56.62377677872845
 10
-124.0753630097157
 20
56.99999999999996
  0
LINE
  5
1E6
330
A0
100
AcDbEntity
  8
Muotoviivat
  6
Yhtenäinen
 62
     7
 48
60.0
370
    50
100
AcDbLine
 10
280.8498639507985
 20
680.0000000000002
 30
0.0
 11
280.7648768304834
 21
680.0000000000002
 31
0.0
  0
LINE
  5
1E7
330
A0
100
AcDbEntity
  8
Muotoviivat
  6
Yhtenäinen
 62
     7
 48
60.0
370
    50
100
AcDbLine
 10
123.0000000000002
 20
186.0
 30
0.0
 11
-123.0000000000001
 21
186.0
 31
0.0
  0
LINE
  5
1E8
330
A0
100
AcDbEntity
  8
Muotoviivat
  6
Yhtenäinen
 62
     7
 48
60.0
370
    50
100
AcDbLine
 10
124.0753630097156
 20
57.0
 30
0.0
 11
-124.0753630097156
 21
57.0
 31
0.0
  0
ARC
  5
1E9
330
A0
100
AcDbEntity
  8
Muotoviivat
  6
Yhtenäinen
 62
     7
 48
60.0
370
    50
100
AcDbCircle
 10
123.0
 20
58.0
 30
0.0
 40
2.000000000000014
100
AcDbArc
 50
280.230617300167
 51
280.699300720095
  0
ARC
  5
1EA
330
A0
100
AcDbEntity
  8
Muotoviivat
  6
Yhtenäinen
 62
     7
 48
60.0
370
    50
100
AcDbCircle
 10
123.0
 20
58.0
 30
0.0
 40
2.000000000000015
100
AcDbArc
 50
290.9434369672915
 51
292.3080737714477
  0
ARC
  5
1EB
330
A0
100
AcDbEntity
  8
Muotoviivat
  6
Yhtenäinen
 62
     7
 48
60.0
370
    50
100
AcDbCircle
 10
123.0
 20
58.0
 30
0.0
 40
2.000000000000011
100
AcDbArc
 50
302.3058140978862
 51
303.4961618851407
  0
ARC
  5
1EC
330
A0
100
AcDbEntity
  8
Muotoviivat
  6
Yhtenäinen
 62
     7
 48
60.0
370
    50
100
AcDbCircle
 10
123.0
 20
58.0
 30
0.0
 40
2.000000000000017
100
AcDbArc
 50
309.5651534950143
 51
315.2628885558472
  0
ARC
  5
1ED
330
A0
100
AcDbEntity
  8
Muotoviivat
  6
Yhtenäinen
 62
     7
 48
60.0
370
    50
100
AcDbCircle
 10
123.0
 20
58.0
 30
0.0
 40
2.000000000000016
100
AcDbArc
 50
321.243138604977
 51
326.1106737898174
  0
ARC
  5
1EE
330
A0
100
AcDbEntity
  8
Muotoviivat
  6
Yhtenäinen
 62
     7
 48
60.0
370
    50
100
AcDbCircle
 10
123.0
 20
58.0
 30
0.0
 40
2.000000000000014
100
AcDbArc
 50
333.1141194774897
 51
337.4453425237071
  0
ARC
  5
1EF
330
A0
100
AcDbEntity
  8
Muotoviivat
  6
Yhtenäinen
 62
     7
 48
60.0
370
    50
100
AcDbCircle
 10
123.0
 20
58.0
 30
0.0
 40
2.000000000000016
100
AcDbArc
 50
348.31445657531
 51
348.4840048224189
  0
LINE
  5
1F0
330
A0
100
AcDbEntity
  8
Muotoviivat
  6
Yhtenäinen
 62
     7
 48
60.0
370
    50
100
AcDbLine
 10
125.0
 20
58.0
 30
0.0
 11
125.0
 21
184.0
 31
0.0
  0
LINE
  5
1F1
330
A0
100
AcDbEntity
  8
Muotoviivat
  6
Yhtenäinen
 62
     7
 48
60.0
370
    50
100
AcDbLine
 10
-123.0000000000002
 20
56.0
 30
0.0
 11
122.9999999999997
 21
56.0
 31
0.0
  0
ARC
  5
1F2
330
A0
100
AcDbEntity
  8
Muotoviivat
  6
Yhtenäinen
 62
     7
 48
60.0
370
    50
100
AcDbCircle
 10
-123.0000000000007
 20
184.0
 30
0.0
 40
2.000000000000003
100
AcDbArc
 50
89.99999999998046
 51
136.5191882446376
  0
ELLIPSE
  5
1F3
330
A0
100
AcDbEntity
  8
Muotoviivat
  6
Yhtenäinen
 62
     7
 48
60.0
370
    50
100
AcDbEllipse
 10
-122.9999999999991
 20
58.0
 30
0.0
 11
-2.000000000001364
 21
0.0
 31
0.0
210
0.0
220
0.0
230
1.0
 40
0.9999999999993179
 41
0.0
 42
0.7588833265706312
  0
ARC
  5
1F4
330
A0
100
AcDbEntity
  8
Muotoviivat
  6
Yhtenäinen
 62
     7
 48
60.0
370
    50
100
AcDbCircle
 10
-123.0000000000007
 20
184.0
 30
0.0
 40
2.000000000000015
100
AcDbArc
 50
100.2376586324857
 51
100.6993007200949
  0
ARC
  5
1F5
330
A0
100
AcDbEntity
  8
Muotoviivat
  6
Yhtenäinen
 62
     7
 48
60.0
370
    50
100
AcDbCircle
 10
-123.0000000000007
 20
184.0
 30
0.0
 40
2.000000000000011
100
AcDbArc
 50
110.934763534996
 51
112.3135984281728
  0
ARC
  5
1F6
330
A0
100
AcDbEntity
  8
Muotoviivat
  6
Yhtenäinen
 62
     7
 48
60.0
370
    50
100
AcDbCircle
 10
-123.0000000000007
 20
184.0
 30
0.0
 40
2.000000000000023
100
AcDbArc
 50
122.3040086781851
 51
123.4947674736284
  0
ARC
  5
1F7
330
A0
100
AcDbEntity
  8
Muotoviivat
  6
Yhtenäinen
 62
     7
 48
60.0
370
    50
100
AcDbCircle
 10
-123.0000000000007
 20
184.0
 30
0.0
 40
2.000000000000027
100
AcDbArc
 50
129.5602607626876
 51
135.268643970935
  0
ARC
  5
1F8
330
A0
100
AcDbEntity
  8
Muotoviivat
  6
Yhtenäinen
 62
     7
 48
60.0
370
    50
100
AcDbCircle
 10
-123.0000000000007
 20
184.0
 30
0.0
 40
2.000000000000017
100
AcDbArc
 50
136.5233674911088
 51
136.5244007061847
  0
ARC
  5
1F9
330
A0
100
AcDbEntity
  8
Muotoviivat
  6
Yhtenäinen
 62
     7
 48
60.0
370
    50
100
AcDbCircle
 10
-123.0000000000007
 20
184.0
 30
0.0
 40
2.000000000000016
100
AcDbArc
 50
141.2431386046408
 51
146.1106737899095
  0
ARC
  5
1FA
330
A0
100
AcDbEntity
  8
Muotoviivat
  6
Yhtenäinen
 62
     7
 48
60.0
370
    50
100
AcDbCircle
 10
-123.0000000000007
 20
184.0
 30
0.0
 40
2.000000000000025
100
AcDbArc
 50
153.1141194770722
 51
157.4453425237887
  0
ARC
  5
1FB
330
A0
100
AcDbEntity
  8
Muotoviivat
  6
Yhtenäinen
 62
     7
 48
60.0
370
    50
100
AcDbCircle
 10
-123.0000000000007
 20
184.0
 30
0.0
 40
2.000000000000011
100
AcDbArc
 50
168.3144565751178
 51
168.48400482242
  0
ARC
  5
1FC
330
A0
100
AcDbEntity
  8
Muotoviivat
  6
Yhtenäinen
 62
     7
 48
60.0
370
    50
100
AcDbCircle
 10
-123.0000000000007
 20
58.0
 30
0.0
 40
2.000000000000009
100
AcDbArc
 50
202.5546574762118
 51
206.8858805229077
  0
ARC
  5
1FD
330
A0
100
AcDbEntity
  8
Muotoviivat
  6
Yhtenäinen
 62
     7
 48
60.0
370
    50
100
AcDbCircle
 10
-123.0000000000007
 20
58.0
 30
0.0
 40
2.000000000000016
100
AcDbArc
 50
213.8893262101018
 51
218.7568613953405
  0
ARC
  5
1FE
330
A0
100
AcDbEntity
  8
Muotoviivat
  6
Yhtenäinen
 62
     7
 48
60.0
370
    50
100
AcDbCircle
 10
-123.0000000000007
 20
58.0
 30
0.0
 40
2.00000000000002
100
AcDbArc
 50
223.475599293815
 51
223.4767877878303
  0
ARC
  5
1FF
330
A0
100
AcDbEntity
  8
Muotoviivat
  6
Yhtenäinen
 62
     7
 48
60.0
370
    50
100
AcDbCircle
 10
-123.0000000000007
 20
58.0
 30
0.0
 40
2.000000000000017
100
AcDbArc
 50
224.7314753457606
 51
230.4549834069881
  0
ARC
  5
200
330
A0
100
AcDbEntity
  8
Muotoviivat
  6
Yhtenäinen
 62
     7
 48
60.0
370
    50
100
AcDbCircle
 10
-123.0000000000007
 20
58.0
 30
0.0
 40
2.000000000000019
100
AcDbArc
 50
236.4972514190399
 51
237.7024056969155
  0
ARC
  5
201
330
A0
100
AcDbEntity
  8
Muotoviivat
  6
Yhtenäinen
 62
     7
 48
60.0
370
    50
100
AcDbCircle
 10
-123.0000000000007
 20
58.0
 30
0.0
 40
2.000000000000017
100
AcDbArc
 50
247.6881017229803
 51
249.0625673061206
  0
ARC
  5
202
330
A0
100
AcDbEntity
  8
Muotoviivat
  6
Yhtenäinen
 62
     7
 48
60.0
370
    50
100
AcDbCircle
 10
-123.0000000000007
 20
58.0
 30
0.0
 40
2.000000000000017
100
AcDbArc
 50
259.097467105655
 51
259.7658242655241
  0
ELLIPSE
  5
203
330
A0
100
AcDbEntity
  8
Muotoviivat
  6
Yhtenäinen
 62
     7
 48
60.0
370
    50
100
AcDbEllipse
 10
123.0
 20
184.0
 30
0.0
 11
2.0
 21
0.0
 31
0.0
210
0.0
220
0.0
230
1.0
 40
1.0
 41
0.0
 42
0.7588833265706956
  0
LINE
  5
204
330
A0
100
AcDbEntity
  8
Muotoviivat
  6
Yhtenäinen
 62
     7
 48
60.0
370
    50
100
AcDbLine
 10
-124.0753630097157
 20
185.0
 30
0.0
 11
124.0753630097157
 21
185.0
 31
0.0
  0
ARC
  5
205
330
A0
100
AcDbEntity
  8
Muotoviivat
  6
Yhtenäinen
 62
     7
 48
60.0
370
    50
100
AcDbCircle
 10
-123.0000000000007
 20
58.0
 30
0.0
 40
2.000000000000014
100
AcDbArc
 50
223.4808117553626
 51
270.0000000000196
  0
LINE
  5
206
330
A0
100
AcDbEntity
  8
Muotoviivat
  6
Yhtenäinen
 62
     7
 48
60.0
370
    50
100
AcDbLine
 10
124.0753630097158
 20
185.0
 30
0.0
 11
124.0753630097156
 21
57.0
 31
0.0
  0
ARC
  5
207
330
A0
100
AcDbEntity
  8
Muotoviivat
  6
Yhtenäinen
 62
     7
 48
60.0
370
    50
100
AcDbCircle
 10
123.0
 20
58.0
 30
0.0
 40
2.000000000000019
100
AcDbArc
 50
270.0
 51
316.5191882446442
  0
CIRCLE
  5
208
330
A0
100
AcDbEntity
  8
Muotoviivat
  6
Yhtenäinen
 62
     7
 48
60.0
370
    50
100
AcDbCircle
 10
-0.0000000000002695
 20
121.0
 30
0.0
 40
9.499999999999998
  0
CIRCLE
  5
209
330
A0
100
AcDbEntity
  8
Muotoviivat
  6
Yhtenäinen
 62
     7
 48
60.0
370
    50
100
AcDbCircle
 10
-0.0000000000002696
 20
121.0
 30
0.0
 40
8.000000000000002
  0
LINE
  5
20A
330
A0
100
AcDbEntity
  8
Muotoviivat
  6
Yhtenäinen
 62
     7
 48
60.0
370
    50
100
AcDbLine
 10
-325.0
 20
0.0
 30
0.0
 11
-325.0
 21
1750.0
 31
0.0
  0
LINE
  5
20B
330
A0
100
AcDbEntity
  8
Muotoviivat
  6
Yhtenäinen
 62
     7
 48
60.0
370
    50
100
AcDbLine
 10
325.0
 20
1750.0
 30
0.0
 11
325.0
 21
0.0
 31
0.0
  0
LINE
  5
20C
330
A0
100
AcDbEntity
  8
Muotoviivat
  6
Yhtenäinen
 62
     7
 48
60.0
370
    50
100
AcDbLine
 10
280.8497032061643
 20
610.112997423576
 30
0.0
 11
280.8497032061643
 21
729.8870025764245
 31
0.0
  0
LINE
  5
20D
330
A0
100
AcDbEntity
  8
Muotoviivat
  6
Yhtenäinen
 62
     7
 48
60.0
370
    50
100
AcDbLine
 10
302.8497032061643
 20
748.112997423576
 30
0.0
 11
302.8497032061643
 21
591.8870025764245
 31
0.0
  0
LINE
  5
20E
330
A0
100
AcDbEntity
  8
Muotoviivat
  6
Yhtenäinen
 62
     7
 48
60.0
370
    50
100
AcDbLine
 10
324.9469765770801
 20
1750.0
 30
0.0
 11
-323.6768328894926
 21
1750.0
 31
0.0
  0
LINE
  5
20F
330
A0
100
AcDbEntity
  8
Muotoviivat
  6
Yhtenäinen
 62
     7
 48
60.0
370
    50
100
AcDbLine
 10
324.9469765770801
 20
0.0
 30
0.0
 11
-323.6768328894926
 21
0.0
 31
0.0
  0
ENDBLK
  5
A2
330
A0
100
AcDbEntity
  8
0
100
AcDbBlockEnd
  0
BLOCK
  5
A4
330
A3
100
AcDbEntity
  8
0
100
AcDbBlockBegin
  2
J60000_upot_laatikko_kok_4_fc17a198-2aab-4f35-b523-73cf287336ac
 70
     0
 10
0.0
 20
0.0
 30
0.0
  3
J60000_upot_laatikko_kok_4_fc17a198-2aab-4f35-b523-73cf287336ac
  1

  0
LINE
  5
183
330
A3
100
AcDbEntity
  8
Muotoviivat
  6
Yhtenäinen
 62
     7
 48
60.0
370
    50
100
AcDbLine
 10
284.8788817004036
 20
-156.4257739668479
 30
0.0
 11
287.5085329160997
 21
-157.8697041880804
 31
0.0
  0
ARC
  5
184
330
A3
100
AcDbEntity
  8
Muotoviivat
  6
Yhtenäinen
 62
     7
 48
60.0
370
    50
100
AcDbCircle
 10
-0.0000000000537739
 20
-0.0000000000330005
 30
0.0
 40
324.9999999999371
100
AcDbArc
 50
208.7709999999994
 51
209.5520211243364
  0
ARC
  5
185
330
A3
100
AcDbEntity
  8
Muotoviivat
  6
Yhtenäinen
 62
     7
 48
60.0
370
    50
100
AcDbCircle
 10
-0.0000000000537739
 20
-0.0000000000330005
 30
0.0
 40
324.9999999999371
100
AcDbArc
 50
213.5480948251865
 51
220.7789048649935
  0
ARC
  5
186
330
A3
100
AcDbEntity
  8
Muotoviivat
  6
Yhtenäinen
 62
     7
 48
60.0
370
    50
100
AcDbCircle
 10
-0.0000000000537739
 20
-0.0000000000330005
 30
0.0
 40
324.9999999999371
100
AcDbArc
 50
223.7820045623942
 51
233.7167583801328
  0
ARC
  5
187
330
A3
100
AcDbEntity
  8
Muotoviivat
  6
Yhtenäinen
 62
     7
 48
60.0
370
    50
100
AcDbCircle
 10
-0.0000000000537739
 20
-0.0000000000330005
 30
0.0
 40
324.9999999999371
100
AcDbArc
 50
236.5196506634512
 51
246.4323541640804
  0
ARC
  5
188
330
A3
100
AcDbEntity
  8
Muotoviivat
  6
Yhtenäinen
 62
     7
 48
60.0
370
    50
100
AcDbCircle
 10
-0.0000000000537739
 20
-0.0000000000330005
 30
0.0
 40
324.9999999999371
100
AcDbArc
 50
247.0328119847427
 51
247.0453760910962
  0
ARC
  5
189
330
A3
100
AcDbEntity
  8
Muotoviivat
  6
Yhtenäinen
 62
     7
 48
60.0
370
    50
100
AcDbCircle
 10
-0.0000000000537739
 20
-0.0000000000330005
 30
0.0
 40
324.9999999999371
100
AcDbArc
 50
247.6237380942187
 51
257.1183609395189
  0
ARC
  5
18A
330
A3
100
AcDbEntity
  8
Muotoviivat
  6
Yhtenäinen
 62
     7
 48
60.0
370
    50
100
AcDbCircle
 10
-0.0000000000537739
 20
-0.0000000000330005
 30
0.0
 40
324.9999999999371
100
AcDbArc
 50
260.7123746620961
 51
270.0385986192522
  0
ARC
  5
18B
330
A3
100
AcDbEntity
  8
Muotoviivat
  6
Yhtenäinen
 62
     7
 48
60.0
370
    50
100
AcDbCircle
 10
-0.0000000000537739
 20
-0.0000000000330005
 30
0.0
 40
324.9999999999372
100
AcDbArc
 50
273.9872434417962
 51
280.0266208748174
  0
ARC
  5
18C
330
A3
100
AcDbEntity
  8
Muotoviivat
  6
Yhtenäinen
 62
     7
 48
60.0
370
    50
100
AcDbCircle
 10
-0.0000000000537739
 20
-0.0000000000330005
 30
0.0
 40
324.9999999999372
100
AcDbArc
 50
284.8648010322584
 51
293.1304226906333
  0
ARC
  5
18D
330
A3
100
AcDbEntity
  8
Muotoviivat
  6
Yhtenäinen
 62
     7
 48
60.0
370
    50
100
AcDbCircle
 10
-0.0000000000537739
 20
-0.0000000000330005
 30
0.0
 40
324.9999999999372
100
AcDbArc
 50
298.6978436340911
 51
302.7802687136039
  0
ARC
  5
18E
330
A3
100
AcDbEntity
  8
Muotoviivat
  6
Yhtenäinen
 62
     7
 48
60.0
370
    50
100
AcDbCircle
 10
-0.0000000000537739
 20
-0.0000000000330005
 30
0.0
 40
324.9999999999372
100
AcDbArc
 50
307.5778517359273
 51
308.6263072050224
  0
ARC
  5
18F
330
A3
100
AcDbEntity
  8
Muotoviivat
  6
Yhtenäinen
 62
     7
 48
60.0
370
    50
100
AcDbCircle
 10
-0.0000000000537739
 20
-0.0000000000330005
 30
0.0
 40
324.9999999999372
100
AcDbArc
 50
313.8431000457906
 51
316.1510402117579
  0
ARC
  5
190
330
A3
100
AcDbEntity
  8
Muotoviivat
  6
Yhtenäinen
 62
     7
 48
60.0
370
    50
100
AcDbCircle
 10
-0.0000000000537739
 20
-0.0000000000330005
 30
0.0
 40
324.9999999999372
100
AcDbArc
 50
322.774466133735
 51
325.187052688147
  0
ARC
  5
191
330
A3
100
AcDbEntity
  8
Muotoviivat
  6
Yhtenäinen
 62
     7
 48
60.0
370
    50
100
AcDbCircle
 10
-0.0000000000537739
 20
-0.0000000000330005
 30
0.0
 40
324.9999999999372
100
AcDbArc
 50
329.9488936155053
 51
331.2290000000096
  0
ARC
  5
192
330
A3
100
AcDbEntity
  8
Muotoviivat
  6
Yhtenäinen
 62
     7
 48
60.0
370
    50
100
AcDbCircle
 10
0.0
 20
0.0000000000001108
 30
0.0
 40
328.0000000000001
100
AcDbArc
 50
208.771
 51
331.2290000000001
  0
LINE
  5
193
330
A3
100
AcDbEntity
  8
Muotoviivat
  6
Yhtenäinen
 62
     7
 48
60.0
370
    50
100
AcDbLine
 10
-287.5085329160997
 20
-157.8697041880803
 30
0.0
 11
-284.8788817004038
 21
-156.4257739668479
 31
0.0
  0
LINE
  5
194
330
A3
100
AcDbEntity
  8
Muotoviivat
  6
Yhtenäinen
 62
     7
 48
60.0
370
    50
100
AcDbLine
 10
-268.7338892009612
 20
-181.6731187842653
 30
0.0
 11
-268.5406441412879
 21
-181.5424782260082
 31
0.0
  0
LINE
  5
195
330
A3
100
AcDbEntity
  8
Muotoviivat
  6
Yhtenäinen
 62
     7
 48
60.0
370
    50
100
AcDbLine
 10
280.9986580895086
 20
-202.1327444108325
 30
0.0
 11
280.7648768304834
 21
-202.4785613759603
 31
0.0
  0
LINE
  5
196
330
A3
100
AcDbEntity
  8
Muotoviivat
  6
Yhtenäinen
 62
     7
 48
60.0
370
    50
100
AcDbLine
 10
286.3654433571621
 20
-194.1940182636187
 30
0.0
 11
273.9386286886493
 21
-185.7931684736004
 31
0.0
  0
LINE
  5
197
330
A3
100
AcDbEntity
  8
Muotoviivat
  6
Yhtenäinen
 62
     7
 48
60.0
370
    50
100
AcDbLine
 10
273.9386286886493
 20
-185.7931684736004
 30
0.0
 11
268.3380621619706
 21
-194.077711585942
 31
0.0
  0
LINE
  5
198
330
A3
100
AcDbEntity
  8
Muotoviivat
  6
Yhtenäinen
 62
     7
 48
60.0
370
    50
100
AcDbLine
 10
271.3554391470657
 20
-184.046865185359
 30
0.0
 11
273.9386286886493
 21
-185.7931684736004
 31
0.0
  0
LINE
  5
199
330
A3
100
AcDbEntity
  8
Muotoviivat
  6
Yhtenäinen
 62
     7
 48
60.0
370
    50
100
AcDbLine
 10
268.3380621619706
 20
-194.077711585942
 30
0.0
 11
280.7648768304834
 21
-202.4785613759603
 31
0.0
  0
LINE
  5
19A
330
A3
100
AcDbEntity
  8
Muotoviivat
  6
Yhtenäinen
 62
     7
 48
60.0
370
    50
100
AcDbLine
 10
264.5224798639006
 20
-193.9124130921339
 30
0.0
 11
267.217948856635
 21
-195.7346202084104
 31
0.0
  0
ELLIPSE
  5
19B
330
A3
100
AcDbEntity
  8
Muotoviivat
  6
Yhtenäinen
 62
     7
 48
60.0
370
    50
100
AcDbEllipse
 10
291.8497032061643
 20
-203.9368563464682
 30
0.0
 11
-7.456088801107455
 21
5.040509874010809
 31
0.0
210
0.0
220
0.0
230
1.0
 40
0.9999999999999947
 41
0.0
 42
6.283185307179586
  0
ELLIPSE
  5
19C
330
A3
100
AcDbEntity
  8
Muotoviivat
  6
Yhtenäinen
 62
     7
 48
60.0
370
    50
100
AcDbEllipse
 10
291.8497032061643
 20
-203.9368563464682
 30
0.0
 11
6.160623179346544
 21
9.112997423575763
 31
0.0
210
0.0
220
0.0
230
1.0
 40
0.9999999999999978
 41
0.0
 42
6.283185307179586
  0
LINE
  5
19D
330
A3
100
AcDbEntity
  8
Muotoviivat
  6
Yhtenäinen
 62
     7
 48
60.0
370
    50
100
AcDbLine
 10
286.3654433571621
 20
-194.1940182636187
 30
0.0
 11
286.1316620981368
 21
-194.5398352287465
 31
0.0
  0
LINE
  5
19E
330
A3
100
AcDbEntity
  8
Muotoviivat
  6
Yhtenäinen
 62
     7
 48
60.0
370
    50
100
AcDbLine
 10
267.217948856635
 20
-195.7346202084104
 30
0.0
 11
268.3380621619706
 21
-194.077711585942
 31
0.0
  0
LINE
  5
19F
330
A3
100
AcDbEntity
  8
Muotoviivat
  6
Yhtenäinen
 62
     7
 48
60.0
370
    50
100
AcDbLine
 10
3.49999999999973
 20
-329.9999999999998
 30
0.0
 11
-3.500000000000266
 21
-329.9999999999998
 31
0.0
  0
LINE
  5
1A0
330
A3
100
AcDbEntity
  8
Muotoviivat
  6
Yhtenäinen
 62
     7
 48
60.0
370
    50
100
AcDbLine
 10
9.499999999999728
 20
-340.9999999999998
 30
0.0
 11
-9.500000000000268
 21
-340.9999999999998
 31
0.0
  0
LINE
  5
1A1
330
A3
100
AcDbEntity
  8
Muotoviivat
  6
Yhtenäinen
 62
     7
 48
60.0
370
    50
100
AcDbLine
 10
3.49999999999973
 20
-336.9999999999998
 30
0.0
 11
-3.500000000000267
 21
-336.9999999999998
 31
0.0
  0
LINE
  5
1A2
330
A3
100
AcDbEntity
  8
Muotoviivat
  6
Yhtenäinen
 62
     7
 48
60.0
370
    50
100
AcDbLine
 10
7.499999999999732
 20
-327.9999999999998
 30
0.0
 11
-7.500000000000266
 21
-327.9999999999998
 31
0.0
  0
LINE
  5
1A3
330
A3
100
AcDbEntity
  8
Muotoviivat
  6
Yhtenäinen
 62
     7
 48
60.0
370
    50
100
AcDbLine
 10
9.499999999999728
 20
-343.9999999999998
 30
0.0
 11
-9.500000000000268
 21
-343.9999999999998
 31
0.0
  0
CIRCLE
  5
1A4
330
A3
100
AcDbEntity
  8
Muotoviivat
  6
Yhtenäinen
 62
     7
 48
60.0
370
    50
100
AcDbCircle
 10
0.0
 20
0.0000000000002143
 30
0.0
 40
325.0
  0
LINE
  5
1A5
330
A3
100
AcDbEntity
  8
Muotoviivat
  6
Yhtenäinen
 62
     7
 48
60.0
370
    50
100
AcDbLine
 10
9.499999999999728
 20
-343.9999999999998
 30
0.0
 11
7.999999999999732
 21
-344.9999999999998
 31
0.0
  0
LINE
  5
1A6
330
A3
100
AcDbEntity
  8
Muotoviivat
  6
Yhtenäinen
 62
     7
 48
60.0
370
    50
100
AcDbLine
 10
-8.000000000000272
 20
-344.9999999999998
 30
0.0
 11
-9.500000000000268
 21
-343.9999999999998
 31
0.0
  0
LINE
  5
1A7
330
A3
100
AcDbEntity
  8
Muotoviivat
  6
Yhtenäinen
 62
     7
 48
60.0
370
    50
100
AcDbLine
 10
3.499999999999729
 20
-336.9999999999998
 30
0.0
 11
9.499999999999728
 21
-340.9999999999998
 31
0.0
  0
LINE
  5
1A8
330
A3
100
AcDbEntity
  8
Muotoviivat
  6
Yhtenäinen
 62
     7
 48
60.0
370
    50
100
AcDbLine
 10
-9.500000000000268
 20
-340.9999999999998
 30
0.0
 11
-3.500000000000266
 21
-336.9999999999998
 31
0.0
  0
ARC
  5
1A9
330
A3
100
AcDbEntity
  8
Muotoviivat
  6
Yhtenäinen
 62
     7
 48
60.0
370
    50
100
AcDbCircle
 10
0.0
 20
0.0000000000000098
 30
0.0
 40
325.0000000000001
100
AcDbArc
 50
77.56190718494494
 51
85.85776756702828
  0
LINE
  5
1AA
330
A3
100
AcDbEntity
  8
Muotoviivat
  6
Yhtenäinen
 62
     7
 48
60.0
370
    50
100
AcDbLine
 10
-7.500000000000266
 20
-327.9999999999998
 30
0.0
 11
-7.500000000000266
 21
-327.7581307696373
 31
0.0
  0
LINE
  5
1AB
330
A3
100
AcDbEntity
  8
Muotoviivat
  6
Yhtenäinen
 62
     7
 48
60.0
370
    50
100
AcDbLine
 10
7.999999999999732
 20
-344.9999999999998
 30
0.0
 11
-8.000000000000272
 21
-344.9999999999998
 31
0.0
  0
LINE
  5
1AC
330
A3
100
AcDbEntity
  8
Muotoviivat
  6
Yhtenäinen
 62
     7
 48
60.0
370
    50
100
AcDbLine
 10
9.499999999999728
 20
-340.9999999999998
 30
0.0
 11
9.499999999999728
 21
-343.9999999999998
 31
0.0
  0
LINE
  5
1AD
330
A3
100
AcDbEntity
  8
Muotoviivat
  6
Yhtenäinen
 62
     7
 48
60.0
370
    50
100
AcDbLine
 10
-3.500000000000267
 20
-336.9999999999998
 30
0.0
 11
-3.500000000000266
 21
-329.9999999999998
 31
0.0
  0
LINE
  5
1AE
330
A3
100
AcDbEntity
  8
Muotoviivat
  6
Yhtenäinen
 62
     7
 48
60.0
370
    50
100
AcDbLine
 10
7.499999999999731
 20
-327.9999999999998
 30
0.0
 11
3.499999999999731
 21
-329.9999999999998
 31
0.0
  0
LINE
  5
1AF
330
A3
100
AcDbEntity
  8
Muotoviivat
  6
Yhtenäinen
 62
     7
 48
60.0
370
    50
100
AcDbLine
 10
7.499999999999732
 20
-327.758112038545
 30
0.0
 11
7.499999999999732
 21
-327.9999999999998
 31
0.0
  0
LINE
  5
1B0
330
A3
100
AcDbEntity
  8
Muotoviivat
  6
Yhtenäinen
 62
     7
 48
60.0
370
    50
100
AcDbLine
 10
-9.500000000000268
 20
-343.9999999999998
 30
0.0
 11
-9.500000000000268
 21
-340.9999999999998
 31
0.0
  0
LINE
  5
1B1
330
A3
100
AcDbEntity
  8
Muotoviivat
  6
Yhtenäinen
 62
     7
 48
60.0
370
    50
100
AcDbLine
 10
-3.500000000000266
 20
-329.9999999999998
 30
0.0
 11
-7.500000000000265
 21
-327.9999999999998
 31
0.0
  0
LINE
  5
1B2
330
A3
100
AcDbEntity
  8
Muotoviivat
  6
Yhtenäinen
 62
     7
 48
60.0
370
    50
100
AcDbLine
 10
3.49999999999973
 20
-329.9999999999998
 30
0.0
 11
3.49999999999973
 21
-336.9999999999998
 31
0.0
  0
CIRCLE
  5
1B3
330
A3
100
AcDbEntity
  8
Muotoviivat
  6
Katkoviiva
 62
     5
420
      255
 48
60.0
370
    50
100
AcDbCircle
 10
0.0
 20
0.0000000000001137
 30
0.0
 40
225.0
  0
HATCH
  5
2FD
330
A3
100
AcDbEntity
  8
Kuvio
 62
     5
420
      255
370
    25
100
AcDbHatch
 10
0.0
 20
0.0
 30
0.0
210
0.0
220
0.0
230
1.0
  2
Viivoitus 1
 70
     0
 71
     1
 91
        1
 92
        2
 72
     1
 73
     1
 93
        8
 10
-225.0
 20
0.0000000000001412
 42
0.0
 10
-225.0
 20
0.0000000000001137
 42
-0.5773502691896264
 10
112.5000000000004
 20
194.8557158514986
 42
0.0
 10
112.4999999999999
 20
194.8557158514988
 42
0.0
 10
112.5000000000004
 20
194.8557158514986
 42
-0.5773502691896244
 10
112.5000000000004
 20
-194.8557158514983
 42
0.0
 10
112.5
 20
-194.8557158514986
 42
0.0
 10
112.5000000000005
 20
-194.8557158514983
 42
-0.5773502691896267
 97
        0
 75
     0
 76
     0
 52
0.0
 41
100.0
 77
     0
 78
     1
 53
45.0
 43
0.0
 44
0.0
 45
141.421
 46
0.0000000000000111
 79
     0
 98
        0
  0
ENDBLK
  5
A5
330
A3
100
AcDbEntity
  8
0
100
AcDbBlockEnd
  0
BLOCK
  5
A7
330
A6
100
AcDbEntity
  8
0
100
AcDbBlockBegin
  2
J60000_upot_laatikko_kok_5_68ffd776-606c-477d-a453-da44f339cd9b
 70
     0
 10
0.0
 20
0.0
 30
0.0
  3
J60000_upot_laatikko_kok_5_68ffd776-606c-477d-a453-da44f339cd9b
  1

  0
ARC
  5
1B5
330
A6
100
AcDbEntity
  8
Muotoviivat
  6
Yhtenäinen
 62
     7
 48
60.0
370
    50
100
AcDbCircle
 10
-0.0000000000537739
 20
-0.0000000000330005
 30
0.0
 40
324.9999999999371
100
AcDbArc
 50
208.7709999999994
 51
209.5520211243364
  0
ARC
  5
1B6
330
A6
100
AcDbEntity
  8
Muotoviivat
  6
Yhtenäinen
 62
     7
 48
60.0
370
    50
100
AcDbCircle
 10
-0.0000000000537739
 20
-0.0000000000330005
 30
0.0
 40
324.9999999999371
100
AcDbArc
 50
213.5480948251865
 51
220.7789048649935
  0
ARC
  5
1B7
330
A6
100
AcDbEntity
  8
Muotoviivat
  6
Yhtenäinen
 62
     7
 48
60.0
370
    50
100
AcDbCircle
 10
-0.0000000000537739
 20
-0.0000000000330005
 30
0.0
 40
324.9999999999371
100
AcDbArc
 50
223.7820045623942
 51
233.7167583801328
  0
ARC
  5
1B8
330
A6
100
AcDbEntity
  8
Muotoviivat
  6
Yhtenäinen
 62
     7
 48
60.0
370
    50
100
AcDbCircle
 10
-0.0000000000537739
 20
-0.0000000000330005
 30
0.0
 40
324.9999999999371
100
AcDbArc
 50
236.5196506634512
 51
246.4323541640804
  0
ARC
  5
1B9
330
A6
100
AcDbEntity
  8
Muotoviivat
  6
Yhtenäinen
 62
     7
 48
60.0
370
    50
100
AcDbCircle
 10
-0.0000000000537739
 20
-0.0000000000330005
 30
0.0
 40
324.9999999999371
100
AcDbArc
 50
247.0328119847427
 51
247.0453760910962
  0
ARC
  5
1BA
330
A6
100
AcDbEntity
  8
Muotoviivat
  6
Yhtenäinen
 62
     7
 48
60.0
370
    50
100
AcDbCircle
 10
-0.0000000000537739
 20
-0.0000000000330005
 30
0.0
 40
324.9999999999371
100
AcDbArc
 50
247.6237380942187
 51
257.1183609395189
  0
ARC
  5
1BB
330
A6
100
AcDbEntity
  8
Muotoviivat
  6
Yhtenäinen
 62
     7
 48
60.0
370
    50
100
AcDbCircle
 10
-0.0000000000537739
 20
-0.0000000000330005
 30
0.0
 40
324.9999999999371
100
AcDbArc
 50
260.7123746620961
 51
270.0385986192522
  0
ARC
  5
1BC
330
A6
100
AcDbEntity
  8
Muotoviivat
  6
Yhtenäinen
 62
     7
 48
60.0
370
    50
100
AcDbCircle
 10
-0.0000000000537739
 20
-0.0000000000330005
 30
0.0
 40
324.9999999999372
100
AcDbArc
 50
273.9872434417962
 51
280.0266208748174
  0
ARC
  5
1BD
330
A6
100
AcDbEntity
  8
Muotoviivat
  6
Yhtenäinen
 62
     7
 48
60.0
370
    50
100
AcDbCircle
 10
-0.0000000000537739
 20
-0.0000000000330005
 30
0.0
 40
324.9999999999372
100
AcDbArc
 50
284.8648010322584
 51
293.1304226906333
  0
ARC
  5
1BE
330
A6
100
AcDbEntity
  8
Muotoviivat
  6
Yhtenäinen
 62
     7
 48
60.0
370
    50
100
AcDbCircle
 10
-0.0000000000537739
 20
-0.0000000000330005
 30
0.0
 40
324.9999999999372
100
AcDbArc
 50
298.6978436340911
 51
302.7802687136039
  0
ARC
  5
1BF
330
A6
100
AcDbEntity
  8
Muotoviivat
  6
Yhtenäinen
 62
     7
 48
60.0
370
    50
100
AcDbCircle
 10
-0.0000000000537739
 20
-0.0000000000330005
 30
0.0
 40
324.9999999999372
100
AcDbArc
 50
307.5778517359273
 51
308.6263072050224
  0
ARC
  5
1C0
330
A6
100
AcDbEntity
  8
Muotoviivat
  6
Yhtenäinen
 62
     7
 48
60.0
370
    50
100
AcDbCircle
 10
-0.0000000000537739
 20
-0.0000000000330005
 30
0.0
 40
324.9999999999372
100
AcDbArc
 50
313.8431000457906
 51
316.1510402117579
  0
ARC
  5
1C1
330
A6
100
AcDbEntity
  8
Muotoviivat
  6
Yhtenäinen
 62
     7
 48
60.0
370
    50
100
AcDbCircle
 10
-0.0000000000537739
 20
-0.0000000000330005
 30
0.0
 40
324.9999999999372
100
AcDbArc
 50
322.774466133735
 51
325.187052688147
  0
ARC
  5
1C2
330
A6
100
AcDbEntity
  8
Muotoviivat
  6
Yhtenäinen
 62
     7
 48
60.0
370
    50
100
AcDbCircle
 10
-0.0000000000537739
 20
-0.0000000000330005
 30
0.0
 40
324.9999999999372
100
AcDbArc
 50
329.9488936155053
 51
331.2290000000096
  0
ARC
  5
1C3
330
A6
100
AcDbEntity
  8
Muotoviivat
  6
Yhtenäinen
 62
     7
 48
60.0
370
    50
100
AcDbCircle
 10
0.0
 20
0.0000000000001108
 30
0.0
 40
328.0000000000001
100
AcDbArc
 50
208.771
 51
331.2290000000001
  0
LINE
  5
1C4
330
A6
100
AcDbEntity
  8
Muotoviivat
  6
Yhtenäinen
 62
     7
 48
60.0
370
    50
100
AcDbLine
 10
-268.7338892009612
 20
-181.6731187842653
 30
0.0
 11
-268.5406441412879
 21
-181.5424782260082
 31
0.0
  0
LINE
  5
1C5
330
A6
100
AcDbEntity
  8
Muotoviivat
  6
Yhtenäinen
 62
     7
 48
60.0
370
    50
100
AcDbLine
 10
284.8788817004036
 20
-156.4257739668479
 30
0.0
 11
287.5085329160997
 21
-157.8697041880804
 31
0.0
  0
LINE
  5
1C6
330
A6
100
AcDbEntity
  8
Muotoviivat
  6
Yhtenäinen
 62
     7
 48
60.0
370
    50
100
AcDbLine
 10
-287.5085329160997
 20
-157.8697041880803
 30
0.0
 11
-284.8788817004038
 21
-156.4257739668479
 31
0.0
  0
ELLIPSE
  5
1C7
330
A6
100
AcDbEntity
  8
Muotoviivat
  6
Yhtenäinen
 62
     7
 48
60.0
370
    50
100
AcDbEllipse
 10
291.8497032061643
 20
-203.9368563464682
 30
0.0
 11
-7.456088801107455
 21
5.040509874010809
 31
0.0
210
0.0
220
0.0
230
1.0
 40
0.9999999999999947
 41
0.0
 42
6.283185307179586
  0
LINE
  5
1C8
330
A6
100
AcDbEntity
  8
Muotoviivat
  6
Yhtenäinen
 62
     7
 48
60.0
370
    50
100
AcDbLine
 10
273.9386286886493
 20
-185.7931684736004
 30
0.0
 11
268.3380621619706
 21
-194.077711585942
 31
0.0
  0
LINE
  5
1C9
330
A6
100
AcDbEntity
  8
Muotoviivat
  6
Yhtenäinen
 62
     7
 48
60.0
370
    50
100
AcDbLine
 10
280.9986580895086
 20
-202.1327444108325
 30
0.0
 11
280.7648768304834
 21
-202.4785613759603
 31
0.0
  0
ELLIPSE
  5
1CA
330
A6
100
AcDbEntity
  8
Muotoviivat
  6
Yhtenäinen
 62
     7
 48
60.0
370
    50
100
AcDbEllipse
 10
291.8497032061643
 20
-203.9368563464682
 30
0.0
 11
6.160623179346544
 21
9.112997423575763
 31
0.0
210
0.0
220
0.0
230
1.0
 40
0.9999999999999978
 41
0.0
 42
6.283185307179586
  0
LINE
  5
1CB
330
A6
100
AcDbEntity
  8
Muotoviivat
  6
Yhtenäinen
 62
     7
 48
60.0
370
    50
100
AcDbLine
 10
268.3380621619706
 20
-194.077711585942
 30
0.0
 11
280.7648768304834
 21
-202.4785613759603
 31
0.0
  0
LINE
  5
1CC
330
A6
100
AcDbEntity
  8
Muotoviivat
  6
Yhtenäinen
 62
     7
 48
60.0
370
    50
100
AcDbLine
 10
286.3654433571621
 20
-194.1940182636187
 30
0.0
 11
273.9386286886493
 21
-185.7931684736004
 31
0.0
  0
LINE
  5
1CD
330
A6
100
AcDbEntity
  8
Muotoviivat
  6
Yhtenäinen
 62
     7
 48
60.0
370
    50
100
AcDbLine
 10
286.3654433571621
 20
-194.1940182636187
 30
0.0
 11
286.1316620981368
 21
-194.5398352287465
 31
0.0
  0
LINE
  5
1CE
330
A6
100
AcDbEntity
  8
Muotoviivat
  6
Yhtenäinen
 62
     7
 48
60.0
370
    50
100
AcDbLine
 10
267.217948856635
 20
-195.7346202084104
 30
0.0
 11
268.3380621619706
 21
-194.077711585942
 31
0.0
  0
LINE
  5
1CF
330
A6
100
AcDbEntity
  8
Muotoviivat
  6
Yhtenäinen
 62
     7
 48
60.0
370
    50
100
AcDbLine
 10
271.3554391470657
 20
-184.046865185359
 30
0.0
 11
273.9386286886493
 21
-185.7931684736004
 31
0.0
  0
LINE
  5
1D0
330
A6
100
AcDbEntity
  8
Muotoviivat
  6
Yhtenäinen
 62
     7
 48
60.0
370
    50
100
AcDbLine
 10
264.5224798639006
 20
-193.9124130921339
 30
0.0
 11
267.217948856635
 21
-195.7346202084104
 31
0.0
  0
LINE
  5
1D1
330
A6
100
AcDbEntity
  8
Muotoviivat
  6
Yhtenäinen
 62
     7
 48
60.0
370
    50
100
AcDbLine
 10
3.49999999999973
 20
-329.9999999999998
 30
0.0
 11
-3.500000000000266
 21
-329.9999999999998
 31
0.0
  0
LINE
  5
1D2
330
A6
100
AcDbEntity
  8
Muotoviivat
  6
Yhtenäinen
 62
     7
 48
60.0
370
    50
100
AcDbLine
 10
7.999999999999732
 20
-344.9999999999998
 30
0.0
 11
-8.000000000000272
 21
-344.9999999999998
 31
0.0
  0
LINE
  5
1D3
330
A6
100
AcDbEntity
  8
Muotoviivat
  6
Yhtenäinen
 62
     7
 48
60.0
370
    50
100
AcDbLine
 10
3.49999999999973
 20
-336.9999999999998
 30
0.0
 11
-3.500000000000267
 21
-336.9999999999998
 31
0.0
  0
CIRCLE
  5
1D4
330
A6
100
AcDbEntity
  8
Muotoviivat
  6
Yhtenäinen
 62
     7
 48
60.0
370
    50
100
AcDbCircle
 10
0.0
 20
0.0000000000002143
 30
0.0
 40
325.0
  0
LINE
  5
1D5
330
A6
100
AcDbEntity
  8
Muotoviivat
  6
Yhtenäinen
 62
     7
 48
60.0
370
    50
100
AcDbLine
 10
7.499999999999731
 20
-327.9999999999998
 30
0.0
 11
3.499999999999731
 21
-329.9999999999998
 31
0.0
  0
LINE
  5
1D6
330
A6
100
AcDbEntity
  8
Muotoviivat
  6
Yhtenäinen
 62
     7
 48
60.0
370
    50
100
AcDbLine
 10
-8.000000000000272
 20
-344.9999999999998
 30
0.0
 11
-9.500000000000268
 21
-343.9999999999998
 31
0.0
  0
LINE
  5
1D7
330
A6
100
AcDbEntity
  8
Muotoviivat
  6
Yhtenäinen
 62
     7
 48
60.0
370
    50
100
AcDbLine
 10
3.499999999999729
 20
-336.9999999999998
 30
0.0
 11
9.499999999999728
 21
-340.9999999999998
 31
0.0
  0
LINE
  5
1D8
330
A6
100
AcDbEntity
  8
Muotoviivat
  6
Yhtenäinen
 62
     7
 48
60.0
370
    50
100
AcDbLine
 10
7.499999999999732
 20
-327.758112038545
 30
0.0
 11
7.499999999999732
 21
-327.9999999999998
 31
0.0
  0
LINE
  5
1D9
330
A6
100
AcDbEntity
  8
Muotoviivat
  6
Yhtenäinen
 62
     7
 48
60.0
370
    50
100
AcDbLine
 10
-3.500000000000266
 20
-329.9999999999998
 30
0.0
 11
-7.500000000000265
 21
-327.9999999999998
 31
0.0
  0
LINE
  5
1DA
330
A6
100
AcDbEntity
  8
Muotoviivat
  6
Yhtenäinen
 62
     7
 48
60.0
370
    50
100
AcDbLine
 10
3.49999999999973
 20
-329.9999999999998
 30
0.0
 11
3.49999999999973
 21
-336.9999999999998
 31
0.0
  0
ARC
  5
1DB
330
A6
100
AcDbEntity
  8
Muotoviivat
  6
Yhtenäinen
 62
     7
 48
60.0
370
    50
100
AcDbCircle
 10
0.0
 20
0.0000000000000098
 30
0.0
 40
325.0000000000001
100
AcDbArc
 50
77.56190718494494
 51
85.85776756702828
  0
LINE
  5
1DC
330
A6
100
AcDbEntity
  8
Muotoviivat
  6
Yhtenäinen
 62
     7
 48
60.0
370
    50
100
AcDbLine
 10
7.499999999999732
 20
-327.9999999999998
 30
0.0
 11
-7.500000000000266
 21
-327.9999999999998
 31
0.0
  0
LINE
  5
1DD
330
A6
100
AcDbEntity
  8
Muotoviivat
  6
Yhtenäinen
 62
     7
 48
60.0
370
    50
100
AcDbLine
 10
-9.500000000000268
 20
-340.9999999999998
 30
0.0
 11
-3.500000000000266
 21
-336.9999999999998
 31
0.0
  0
LINE
  5
1DE
330
A6
100
AcDbEntity
  8
Muotoviivat
  6
Yhtenäinen
 62
     7
 48
60.0
370
    50
100
AcDbLine
 10
-7.500000000000266
 20
-327.9999999999998
 30
0.0
 11
-7.500000000000266
 21
-327.7581307696373
 31
0.0
  0
LINE
  5
1DF
330
A6
100
AcDbEntity
  8
Muotoviivat
  6
Yhtenäinen
 62
     7
 48
60.0
370
    50
100
AcDbLine
 10
-3.500000000000267
 20
-336.9999999999998
 30
0.0
 11
-3.500000000000266
 21
-329.9999999999998
 31
0.0
  0
LINE
  5
1E0
330
A6
100
AcDbEntity
  8
Muotoviivat
  6
Yhtenäinen
 62
     7
 48
60.0
370
    50
100
AcDbLine
 10
9.499999999999728
 20
-340.9999999999998
 30
0.0
 11
9.499999999999728
 21
-343.9999999999998
 31
0.0
  0
LINE
  5
1E1
330
A6
100
AcDbEntity
  8
Muotoviivat
  6
Yhtenäinen
 62
     7
 48
60.0
370
    50
100
AcDbLine
 10
9.499999999999728
 20
-340.9999999999998
 30
0.0
 11
-9.500000000000268
 21
-340.9999999999998
 31
0.0
  0
LINE
  5
1E2
330
A6
100
AcDbEntity
  8
Muotoviivat
  6
Yhtenäinen
 62
     7
 48
60.0
370
    50
100
AcDbLine
 10
-9.500000000000268
 20
-343.9999999999998
 30
0.0
 11
-9.500000000000268
 21
-340.9999999999998
 31
0.0
  0
LINE
  5
1E3
330
A6
100
AcDbEntity
  8
Muotoviivat
  6
Yhtenäinen
 62
     7
 48
60.0
370
    50
100
AcDbLine
 10
9.499999999999728
 20
-343.9999999999998
 30
0.0
 11
7.999999999999732
 21
-344.9999999999998
 31
0.0
  0
LINE
  5
1E4
330
A6
100
AcDbEntity
  8
Muotoviivat
  6
Yhtenäinen
 62
     7
 48
60.0
370
    50
100
AcDbLine
 10
9.499999999999728
 20
-343.9999999999998
 30
0.0
 11
-9.500000000000268
 21
-343.9999999999998
 31
0.0
  0
ARC
  5
1E5
330
A6
100
AcDbEntity
  8
Muotoviivat
  6
Katkoviiva
 62
    20
420
 16720896
 48
60.0
370
    50
100
AcDbCircle
 10
0.0
 20
0.0000000000001137
 30
0.0
 40
353.6028880579382
100
AcDbArc
 50
45.00000000000001
 51
135.0
  0
ENDBLK
  5
A8
330
A6
100
AcDbEntity
  8
0
100
AcDbBlockEnd
  0
BLOCK
  5
2C3
330
2C2
100
AcDbEntity
  8
0
100
AcDbBlockBegin
  2
*D8
 70
     1
 10
0.0
 20
0.0
 30
0.0
  3
*D8
  1

  0
LINE
  5
2C5
330
2C2
100
AcDbEntity
  8
Mitat
 62
   160
370
    25
100
AcDbLine
 10
-576.3398282058208
 20
1688.08982821999
 30
0.0
 11
-576.3398282058208
 21
1531.35999999999
 31
0.0
  0
LINE
  5
2C6
330
2C2
100
AcDbEntity
  8
Mitat
 62
   160
370
    25
100
AcDbLine
 10
73.66017179417912
 20
1688.08982821999
 30
0.0
 11
73.66017179417912
 21
1531.35999999999
 31
0.0
  0
LINE
  5
2C7
330
2C2
100
AcDbEntity
  8
Mitat
 62
   160
370
    25
100
AcDbLine
 10
-504.3398282058208
 20
1567.35999999999
 30
0.0
 11
1.660171794179121
 21
1567.35999999999
 31
0.0
  0
INSERT
  5
2C8
330
2C2
100
AcDbEntity
  8
Mitat
 62
   160
370
    25
100
AcDbBlockReference
  2
_Closed
 10
-576.3398282058208
 20
1567.35999999999
 30
0.0
 41
72.0
 42
72.0
 43
72.0
 50
180.0
  0
INSERT
  5
2C9
330
2C2
100
AcDbEntity
  8
Mitat
 62
   160
370
    25
100
AcDbBlockReference
  2
_Closed
 10
73.66017179417912
 20
1567.35999999999
 30
0.0
 41
72.0
 42
72.0
 43
72.0
  0
MTEXT
  5
2CA
330
2C2
100
AcDbEntity
  8
Mitat
 62
     7
370
    35
100
AcDbMText
 10
-258.1000000001709
 20
1616.14320312499
 30
0.0
 40
50.0
 41
0.0
 46
0.0
 71
     5
 72
     1
  1
\A1;Ø650
  7
Arial
 73
     1
 44
1.0
  0
POINT
  5
2CB
330
2C2
100
AcDbEntity
  8
Defpoints
 62
     0
100
AcDbPoint
 10
-576.3398282058208
 20
1689.33982821999
 30
0.0
  0
POINT
  5
2CC
330
2C2
100
AcDbEntity
  8
Defpoints
 62
     0
100
AcDbPoint
 10
73.66017179417912
 20
1689.33982821999
 30
0.0
  0
POINT
  5
2CD
330
2C2
100
AcDbEntity
  8
Defpoints
 62
     0
100
AcDbPoint
 10
73.66017179417912
 20
1567.35999999999
 30
0.0
  0
ENDBLK
  5
2C4
330
2C2
100
AcDbEntity
  8
0
100
AcDbBlockEnd
  0
BLOCK
  5
2D1
330
2D0
100
AcDbEntity
  8
0
100
AcDbBlockBegin
  2
*D9
 70
     1
 10
0.0
 20
0.0
 30
0.0
  3
*D9
  1

  0
LINE
  5
2D3
330
2D0
100
AcDbEntity
  8
Mitat
 62
   160
370
    25
100
AcDbLine
 10
-577.5898282058209
 20
1689.33982821999
 30
0.0
 11
-732.449999999821
 21
1689.33982821999
 31
0.0
  0
LINE
  5
2D4
330
2D0
100
AcDbEntity
  8
Mitat
 62
   160
370
    25
100
AcDbLine
 10
-577.5898282058209
 20
3439.33982821999
 30
0.0
 11
-732.4499999998209
 21
3439.33982821999
 31
0.0
  0
LINE
  5
2D5
330
2D0
100
AcDbEntity
  8
Mitat
 62
   160
370
    25
100
AcDbLine
 10
-696.449999999821
 20
1761.33982821999
 30
0.0
 11
-696.4499999998209
 21
3367.33982821999
 31
0.0
  0
INSERT
  5
2D6
330
2D0
100
AcDbEntity
  8
Mitat
 62
   160
370
    25
100
AcDbBlockReference
  2
_Closed
 10
-696.449999999821
 20
1689.33982821999
 30
0.0
 41
72.0
 42
72.0
 43
72.0
 50
270.0
  0
INSERT
  5
2D7
330
2D0
100
AcDbEntity
  8
Mitat
 62
   160
370
    25
100
AcDbBlockReference
  2
_Closed
 10
-696.4499999998209
 20
3439.33982821999
 30
0.0
 41
72.0
 42
72.0
 43
72.0
 50
90.0
  0
MTEXT
  5
2D8
330
2D0
100
AcDbEntity
  8
Mitat
 62
     7
370
    35
100
AcDbMText
 10
-743.849999999821
 20
2572.26999999924
 30
0.0
 40
50.0
 41
0.0
 46
0.0
 71
     5
 72
     1
  1
\A1;1750
  7
Arial
 11
6.496390726949488E-17
 21
1.0
 31
0.0
 73
     1
 44
1.0
  0
POINT
  5
2D9
330
2D0
100
AcDbEntity
  8
Defpoints
 62
     0
100
AcDbPoint
 10
-576.3398282058209
 20
1689.33982821999
 30
0.0
  0
POINT
  5
2DA
330
2D0
100
AcDbEntity
  8
Defpoints
 62
     0
100
AcDbPoint
 10
-576.3398282058209
 20
3439.33982821999
 30
0.0
  0
POINT
  5
2DB
330
2D0
100
AcDbEntity
  8
Defpoints
 62
     0
100
AcDbPoint
 10
-696.4499999998209
 20
3439.33982821999
 30
0.0
  0
ENDBLK
  5
2D2
330
2D0
100
AcDbEntity
  8
0
100
AcDbBlockEnd
  0
BLOCK
  5
2DF
330
2DE
100
AcDbEntity
  8
0
100
AcDbBlockBegin
  2
*D10
 70
     1
 10
0.0
 20
0.0
 30
0.0
  3
*D10
  1

  0
LINE
  5
2E1
330
2DE
100
AcDbEntity
  8
Mitat
 62
   160
370
    25
100
AcDbLine
 10
999.9101717941792
 20
664.3398282199896
 30
0.0
 11
1489.862786896179
 21
664.3398282199896
 31
0.0
  0
LINE
  5
2E2
330
2DE
100
AcDbEntity
  8
Mitat
 62
   160
370
    25
100
AcDbLine
 10
999.9101717941792
 20
1114.33982821999
 30
0.0
 11
1489.862786896179
 21
1114.33982821999
 31
0.0
  0
LINE
  5
2E3
330
2DE
100
AcDbEntity
  8
Mitat
 62
   160
370
    25
100
AcDbLine
 10
1453.862786896179
 20
736.3398282199896
 30
0.0
 11
1453.862786896179
 21
1042.33982821999
 31
0.0
  0
INSERT
  5
2E4
330
2DE
100
AcDbEntity
  8
Mitat
 62
   160
370
    25
100
AcDbBlockReference
  2
_Closed
 10
1453.862786896179
 20
664.3398282199896
 30
0.0
 41
72.0
 42
72.0
 43
72.0
 50
270.0
  0
INSERT
  5
2E5
330
2DE
100
AcDbEntity
  8
Mitat
 62
   160
370
    25
100
AcDbBlockReference
  2
_Closed
 10
1453.862786896179
 20
1114.33982821999
 30
0.0
 41
72.0
 42
72.0
 43
72.0
 50
90.0
  0
MTEXT
  5
2E6
330
2DE
100
AcDbEntity
  8
Mitat
 62
     7
370
    35
100
AcDbMText
 10
1406.462786896179
 20
895.2790970644896
 30
0.0
 40
50.0
 41
0.0
 46
0.0
 71
     5
 72
     1
  1
\A1;450
  7
Arial
 11
0.0
 21
1.0
 31
0.0
 73
     1
 44
1.0
  0
POINT
  5
2E7
330
2DE
100
AcDbEntity
  8
Defpoints
 62
     0
100
AcDbPoint
 10
998.6601717941792
 20
664.3398282199896
 30
0.0
  0
POINT
  5
2E8
330
2DE
100
AcDbEntity
  8
Defpoints
 62
     0
100
AcDbPoint
 10
998.6601717941792
 20
1114.33982821999
 30
0.0
  0
POINT
  5
2E9
330
2DE
100
AcDbEntity
  8
Defpoints
 62
     0
100
AcDbPoint
 10
1453.862786896179
 20
1114.33982821999
 30
0.0
  0
ENDBLK
  5
2E0
330
2DE
100
AcDbEntity
  8
0
100
AcDbBlockEnd
  0
BLOCK
  5
2ED
330
2EC
100
AcDbEntity
  8
0
100
AcDbBlockBegin
  2
*D11
 70
     1
 10
0.0
 20
0.0
 30
0.0
  3
*D11
  1

  0
LINE
  5
2EF
330
2EC
100
AcDbEntity
  8
Mitat
 62
   160
370
    25
100
AcDbLine
 10
-252.5898282058209
 20
564.3398282199897
 30
0.0
 11
-740.7199999998209
 21
564.3398282199897
 31
0.0
  0
LINE
  5
2F0
330
2EC
100
AcDbEntity
  8
Mitat
 62
   160
370
    25
100
AcDbLine
 10
-252.5898282058209
 20
1214.33982821999
 30
0.0
 11
-740.7199999998209
 21
1214.33982821999
 31
0.0
  0
LINE
  5
2F1
330
2EC
100
AcDbEntity
  8
Mitat
 62
   160
370
    25
100
AcDbLine
 10
-704.7199999998209
 20
636.3398282199897
 30
0.0
 11
-704.7199999998209
 21
1142.33982821999
 31
0.0
  0
INSERT
  5
2F2
330
2EC
100
AcDbEntity
  8
Mitat
 62
   160
370
    25
100
AcDbBlockReference
  2
_Closed
 10
-704.7199999998209
 20
564.3398282199897
 30
0.0
 41
72.0
 42
72.0
 43
72.0
 50
270.0
  0
INSERT
  5
2F3
330
2EC
100
AcDbEntity
  8
Mitat
 62
   160
370
    25
100
AcDbBlockReference
  2
_Closed
 10
-704.7199999998209
 20
1214.33982821999
 30
0.0
 41
72.0
 42
72.0
 43
72.0
 50
90.0
  0
MTEXT
  5
2F4
330
2EC
100
AcDbEntity
  8
Mitat
 62
     7
370
    35
100
AcDbMText
 10
-752.1199999998208
 20
905.6900000001398
 30
0.0
 40
50.0
 41
0.0
 46
0.0
 71
     5
 72
     1
  1
\A1;650
  7
Arial
 11
0.0
 21
1.0
 31
0.0
 73
     1
 44
1.0
  0
POINT
  5
2F5
330
2EC
100
AcDbEntity
  8
Defpoints
 62
     0
100
AcDbPoint
 10
-251.3398282058209
 20
564.3398282199897
 30
0.0
  0
POINT
  5
2F6
330
2EC
100
AcDbEntity
  8
Defpoints
 62
     0
100
AcDbPoint
 10
-251.3398282058209
 20
1214.33982821999
 30
0.0
  0
POINT
  5
2F7
330
2EC
100
AcDbEntity
  8
Defpoints
 62
     0
100
AcDbPoint
 10
-704.7199999998209
 20
1214.33982821999
 30
0.0
  0
ENDBLK
  5
2EE
330
2EC
100
AcDbEntity
  8
0
100
AcDbBlockEnd
  0
ENDSEC
  0
SECTION
  2
ENTITIES
  0
TEXT
  5
210
330
1F
100
AcDbEntity
  8
Tekstit
 62
     7
370
    35
100
AcDbText
 10
827.7
 20
3674.54
 30
0.0
 40
36.0
  1
WILMA
  7
Arial
 11
827.7
 21
3710.54
 31
0.0
100
AcDbText
 73
     3
  0
TEXT
  5
211
330
1F
100
AcDbEntity
  8
Tekstit
 62
     7
370
    35
100
AcDbText
 10
827.7
 20
3539.54
 30
0.0
 40
36.0
  1
Halkaisija 650 mm
  7
Arial
 11
827.7
 21
3575.54
 31
0.0
100
AcDbText
 73
     3
  0
TEXT
  5
212
330
1F
100
AcDbEntity
  8
Tekstit
 62
     7
370
    35
100
AcDbText
 10
827.7
 20
3472.04
 30
0.0
 40
36.0
  1
Korkeus n. 1750 mm
  7
Arial
 11
827.7
 21
3508.04
 31
0.0
100
AcDbText
 73
     3
  0
TEXT
  5
213
330
1F
100
AcDbEntity
  8
Tekstit
 62
     7
370
    35
100
AcDbText
 10
827.7
 20
3404.54
 30
0.0
 40
36.0
  1
Paino 900 kg
  7
Arial
 11
827.7
 21
3440.54
 31
0.0
100
AcDbText
 73
     3
  0
TEXT
  5
214
330
1F
100
AcDbEntity
  8
Tekstit
 62
     7
370
    35
100
AcDbText
 10
827.7
 20
3269.54
 30
0.0
 40
36.0
  1
Tulipesä
  7
Arial
 11
827.7
 21
3305.54
 31
0.0
100
AcDbText
 73
     3
  0
TEXT
  5
215
330
1F
100
AcDbEntity
  8
Tekstit
 62
     7
370
    35
100
AcDbText
 10
827.7
 20
3202.04
 30
0.0
 40
36.0
  1
Syvyys 385 mm
  7
Arial
 11
827.7
 21
3238.04
 31
0.0
100
AcDbText
 73
     3
  0
TEXT
  5
216
330
1F
100
AcDbEntity
  8
Tekstit
 62
     7
370
    35
100
AcDbText
 10
827.7
 20
3134.54
 30
0.0
 40
36.0
  1
Leveys 406-200 mm
  7
Arial
 11
827.7
 21
3170.54
 31
0.0
100
AcDbText
 73
     3
  0
TEXT
  5
217
330
1F
100
AcDbEntity
  8
Tekstit
 62
     7
370
    35
100
AcDbText
 10
827.7
 20
2999.54
 30
0.0
 40
36.0
  1
Takkaluukku (muurausmitta)
  7
Arial
 11
827.7
 21
3035.54
 31
0.0
100
AcDbText
 73
     3
  0
TEXT
  5
218
330
1F
100
AcDbEntity
  8
Tekstit
 62
     7
370
    35
100
AcDbText
 10
827.7
 20
2932.04
 30
0.0
 40
36.0
  1
Säde 325 mm
  7
Arial
 11
827.7
 21
2968.04
 31
0.0
100
AcDbText
 73
     3
  0
TEXT
  5
219
330
1F
100
AcDbEntity
  8
Tekstit
 62
     7
370
    35
100
AcDbText
 10
827.7
 20
2864.54
 30
0.0
 40
36.0
  1
Leveys 570 mm (540 mm)
  7
Arial
 11
827.7
 21
2900.54
 31
0.0
100
AcDbText
 73
     3
  0
TEXT
  5
21A
330
1F
100
AcDbEntity
  8
Tekstit
 62
     7
370
    35
100
AcDbText
 10
827.7
 20
2797.04
 30
0.0
 40
36.0
  1
Korkeus 445 mm (385 mm)
  7
Arial
 11
827.7
 21
2833.04
 31
0.0
100
AcDbText
 73
     3
  0
TEXT
  5
21B
330
1F
100
AcDbEntity
  8
Tekstit
 62
     7
370
    35
100
AcDbText
 10
827.7
 20
2662.04
 30
0.0
 40
36.0
  1
Lämmitysala
  7
Arial
 11
827.7
 21
2698.04
 31
0.0
100
AcDbText
 73
     3
  0
TEXT
  5
21C
330
1F
100
AcDbEntity
  8
Tekstit
 62
     7
370
    35
100
AcDbText
 10
827.7
 20
2594.54
 30
0.0
 40
36.0
  1
40-60 m
  7
Arial
 11
827.7
 21
2630.54
 31
0.0
100
AcDbText
 73
     3
  0
TEXT
  5
21D
330
1F
100
AcDbEntity
  8
Tekstit
 62
     7
370
    35
100
AcDbText
 10
1007.1375
 20
2617.04
 30
0.0
 40
22.5
  1
2
  7
Arial
 11
1007.1375
 21
2639.54
 31
0.0
100
AcDbText
 73
     3
  0
TEXT
  5
21E
330
1F
100
AcDbEntity
  8
Tekstit
 62
     7
370
    35
100
AcDbText
 10
827.7
 20
2459.54
 30
0.0
 40
36.0
  1
Lisäkerros
  7
Arial
 11
827.7
 21
2495.54
 31
0.0
100
AcDbText
 73
     3
  0
TEXT
  5
21F
330
1F
100
AcDbEntity
  8
Tekstit
 62
     7
370
    35
100
AcDbText
 10
827.7
 20
2392.04
 30
0.0
 40
36.0
  1
100 mm (50 kg)
  7
Arial
 11
827.7
 21
2428.04
 31
0.0
100
AcDbText
 73
     3
  0
TEXT
  5
220
330
1F
100
AcDbEntity
  8
Tekstit
 62
     7
370
    35
100
AcDbText
 10
827.7
 20
2257.04
 30
0.0
 40
36.0
  1
Hormisuositus min.
  7
Arial
 11
827.7
 21
2293.04
 31
0.0
100
AcDbText
 73
     3
  0
TEXT
  5
221
330
1F
100
AcDbEntity
  8
Tekstit
 62
     7
370
    35
100
AcDbText
 10
827.7
 20
2189.54
 30
0.0
 40
36.0
  1
1/2 tiiltä tai Ø150 mm
  7
Arial
 11
827.7
 21
2225.54
 31
0.0
100
AcDbText
 73
     3
  0
TEXT
  5
222
330
1F
100
AcDbEntity
  8
Tekstit
 62
     7
370
    35
100
AcDbText
 10
827.7
 20
2122.04
 30
0.0
 40
36.0
  1
(liitosputki 120x180 mm)
  7
Arial
 11
827.7
 21
2158.04
 31
0.0
100
AcDbText
 73
     3
  0
TEXT
  5
223
330
1F
100
AcDbEntity
  8
Tekstit
 62
     7
370
    35
100
AcDbText
 10
827.7
 20
2054.54
 30
0.0
 40
36.0
  1
Hormiliitoksen alareuna
  7
Arial
 11
827.7
 21
2090.54
 31
0.0
100
AcDbText
 73
     3
  0
TEXT
  5
224
330
1F
100
AcDbEntity
  8
Tekstit
 62
     7
370
    35
100
AcDbText
 10
827.7
 20
1987.04
 30
0.0
 40
36.0
  1
90 mm takan pohjasta
  7
Arial
 11
827.7
 21
2023.04
 31
0.0
100
AcDbText
 73
     3
  0
TEXT
  5
225
330
1F
100
AcDbEntity
  8
Tekstit
 62
     7
370
    35
100
AcDbText
 10
827.7
 20
1852.04
 30
0.0
 40
36.0
  1
Punainen väri:
  7
Arial
 11
827.7
 21
1888.04
 31
0.0
100
AcDbText
 73
     3
  0
TEXT
  5
226
330
1F
100
AcDbEntity
  8
Tekstit
 62
     7
370
    35
100
AcDbText
 10
827.7
 20
1784.54
 30
0.0
 40
36.0
  1
Hormiliitoksen paikoitus
  7
Arial
 11
827.7
 21
1820.54
 31
0.0
100
AcDbText
 73
     3
  0
TEXT
  5
227
330
1F
100
AcDbEntity
  8
Tekstit
 62
     7
370
    35
100
AcDbText
 10
827.7
 20
1717.04
 30
0.0
 40
36.0
  1
takan alaosassa
  7
Arial
 11
827.7
 21
1753.04
 31
0.0
100
AcDbText
 73
     3
  0
TEXT
  5
228
330
1F
100
AcDbEntity
  8
Tekstit
 62
     7
370
    35
100
AcDbText
 10
827.7
 20
1582.04
 30
0.0
 40
36.0
  1
Sininen väri:
  7
Arial
 11
827.7
 21
1618.04
 31
0.0
100
AcDbText
 73
     3
  0
TEXT
  5
229
330
1F
100
AcDbEntity
  8
Tekstit
 62
     7
370
    35
100
AcDbText
 10
827.7
 20
1514.54
 30
0.0
 40
36.0
  1
Korvausilman tuonti
  7
Arial
 11
827.7
 21
1550.54
 31
0.0
100
AcDbText
 73
     3
  0
TEXT
  5
22A
330
1F
100
AcDbEntity
  8
Tekstit
 62
     7
370
    35
100
AcDbText
 10
827.7
 20
1447.04
 30
0.0
 40
36.0
  1
takan pohjan alueelta
  7
Arial
 11
827.7
 21
1483.04
 31
0.0
100
AcDbText
 73
     3
  0
TEXT
  5
251
330
1F
100
AcDbEntity
  8
Englanninkieliset tekstit
 62
     7
370
    25
100
AcDbText
 10
-1618.501422260761
 20
-182.9243391038177
 30
0.0
 40
44.0
  1
Part
 41
0.9
  7
Arial
 11
-1618.501422260761
 21
-195.9443391038178
 31
0.0
100
AcDbText
 73
     1
  0
TEXT
  5
252
330
1F
100
AcDbEntity
  8
Englanninkieliset tekstit
 62
     7
370
    25
100
AcDbText
 10
1403.600000016391
 20
-177.8300000005362
 30
0.0
 40
44.0
  1
Amount
 41
0.9
  7
Arial
 11
1403.600000016391
 21
-190.8500000005362
 31
0.0
100
AcDbText
 73
     1
  0
TEXT
  5
253
330
1F
100
AcDbEntity
  8
Englanninkieliset tekstit
 62
     7
370
    25
100
AcDbText
 10
-1623.508272894558
 20
-800.3713586908959
 30
0.0
 40
44.0
  1
Design
 41
0.8599999999999999
  7
Arial
 11
-1623.508272894558
 21
-813.3913586908959
 31
0.0
100
AcDbText
 73
     1
  0
TEXT
  5
254
330
1F
100
AcDbEntity
  8
Englanninkieliset tekstit
 62
     7
370
    25
100
AcDbText
 10
-1623.508272894558
 20
-922.0449995666911
 30
0.0
 40
44.0
  1
Check
 41
0.9
  7
Arial
 11
-1623.508272894558
 21
-935.0649995666911
 31
0.0
100
AcDbText
 73
     1
  0
TEXT
  5
255
330
1F
100
AcDbEntity
  8
Englanninkieliset tekstit
 62
     7
370
    25
100
AcDbText
 10
-1617.19999998361
 20
-1041.830000000538
 30
0.0
 40
44.0
  1
Acc
 41
0.9
  7
Arial
 11
-1617.19999998361
 21
-1054.850000000538
 31
0.0
100
AcDbText
 73
     1
  0
TEXT
  5
256
330
1F
100
AcDbEntity
  8
Englanninkieliset tekstit
 62
     7
370
    25
100
AcDbText
 10
-1615.199999983608
 20
-311.030000000537
 30
0.0
 40
44.0
  1
General tolerances
 41
0.9
  7
Arial
 11
-1615.199999983608
 21
-324.050000000537
 31
0.0
100
AcDbText
 73
     1
  0
TEXT
  5
257
330
1F
100
AcDbEntity
  8
Englanninkieliset tekstit
 62
     7
370
    25
100
AcDbText
 10
-909.5999999836095
 20
-312.6300000005373
 30
0.0
 40
44.0
  1
Scale
 41
0.9
  7
Arial
 11
-909.5999999836095
 21
-325.6500000005373
 31
0.0
100
AcDbText
 73
     1
  0
TEXT
  5
258
330
1F
100
AcDbEntity
  8
Englanninkieliset tekstit
 62
     7
370
    25
100
AcDbText
 10
-514.3999999836069
 20
-292.6300000005373
 30
0.0
 40
44.0
  1
Product
 41
0.9
  7
Arial
 11
-514.3999999836069
 21
-305.6500000005373
 31
0.0
100
AcDbText
 73
     1
  0
TEXT
  5
259
330
1F
100
AcDbEntity
  8
Englanninkieliset tekstit
 62
     7
370
    25
100
AcDbText
 10
-518.9999999836073
 20
-615.8300000005363
 30
0.0
 40
44.0
  1
Project
 41
0.9
  7
Arial
 11
-518.9999999836073
 21
-628.8500000005363
 31
0.0
100
AcDbText
 73
     1
  0
TEXT
  5
25A
330
1F
100
AcDbEntity
  8
Englanninkieliset tekstit
 62
     7
370
    25
100
AcDbText
 10
842.4000000163905
 20
-799.8300000005363
 30
0.0
 40
44.0
  1
Prev
 41
0.9
  7
Arial
 11
842.4000000163905
 21
-812.8500000005363
 31
0.0
100
AcDbText
 73
     1
  0
TEXT
  5
25B
330
1F
100
AcDbEntity
  8
Englanninkieliset tekstit
 62
     7
370
    25
100
AcDbText
 10
-511.1540806321573
 20
-456.4146935500536
 30
0.0
 40
44.0
  1
Ref
 41
0.9
  7
Arial
 11
-511.1540806321573
 21
-469.4346935500536
 31
0.0
100
AcDbText
 73
     1
  0
TEXT
  5
25C
330
1F
100
AcDbEntity
  8
Englanninkieliset tekstit
 62
     7
370
    25
100
AcDbText
 10
-902.9999999836091
 20
-181.0300000005369
 30
0.0
 40
44.0
  1
Part or assembly group name
 41
0.9
  7
Arial
 11
-902.9999999836091
 21
-194.050000000537
 31
0.0
100
AcDbText
 73
     1
  0
TEXT
  5
25D
330
1F
100
AcDbEntity
  8
Englanninkieliset tekstit
 62
     7
370
    25
100
AcDbText
 10
2174.467477774284
 20
-179.9569402019079
 30
0.0
 40
44.0
  1
Qty
 41
0.9
  7
Arial
 11
2174.467477774284
 21
-135.9569402019079
 31
0.0
100
AcDbText
 73
     3
  0
TEXT
  5
25E
330
1F
100
AcDbEntity
  8
Englanninkieliset tekstit
 62
     7
370
    25
100
AcDbText
 10
496.5322869967604
 20
-179.560505919877
 30
0.0
 40
44.0
  1
Shape, Dimension, Designation
 41
0.9
  7
Arial
 11
496.5322869967604
 21
-135.560505919877
 31
0.0
100
AcDbText
 73
     3
  0
TEXT
  5
25F
330
1F
100
AcDbEntity
  8
Englanninkieliset tekstit
 62
     7
370
    25
100
AcDbText
 10
1737.400000016391
 20
-177.8300000005362
 30
0.0
 40
44.0
  1
Material
 41
0.9
  7
Arial
 11
1737.400000016391
 21
-190.8500000005362
 31
0.0
100
AcDbText
 73
     1
  0
TEXT
  5
260
330
1F
100
AcDbEntity
  8
Englanninkieliset tekstit
 62
     7
370
    25
100
AcDbText
 10
-1467.266577919112
 20
-138.254654637996
 30
0.0
 40
44.0
  1
Drawing number 
 41
0.9
  7
Arial
 11
-1467.266577919112
 21
-151.274654637996
 31
0.0
100
AcDbText
 73
     1
  0
TEXT
  5
261
330
1F
100
AcDbEntity
  8
Englanninkieliset tekstit
 62
     7
370
    25
100
AcDbText
 10
-1467.266577919112
 20
-211.954654637996
 30
0.0
 40
44.0
  1
Item reference
 41
0.9
  7
Arial
 11
-1467.266577919112
 21
-224.974654637996
 31
0.0
100
AcDbText
 73
     1
  0
TEXT
  5
262
330
1F
100
AcDbEntity
  8
Englanninkieliset tekstit
 62
     7
370
    25
100
AcDbText
 10
1571.400000016392
 20
-799.8300000005363
 30
0.0
 40
44.0
  1
New
 41
0.9
  7
Arial
 11
1571.400000016392
 21
-812.8500000005363
 31
0.0
100
AcDbText
 73
     1
  0
TEXT
  5
263
330
1F
100
AcDbEntity
  8
Englanninkieliset tekstit
 62
     7
370
    25
100
AcDbText
 10
70.55575877519368
 20
-144.791478814742
 30
0.0
 40
44.0
  1
Standard 
 41
0.9
  7
Arial
 11
70.55575877519368
 21
-100.791478814742
 31
0.0
100
AcDbText
 73
     3
  0
TEXT
  5
264
330
1F
100
AcDbEntity
  8
Englanninkieliset tekstit
 62
     7
370
    25
100
AcDbText
 10
70.55575877519368
 20
-218.491478814742
 30
0.0
 40
44.0
  1
or catalog
 41
0.9
  7
Arial
 11
70.55575877519368
 21
-174.491478814742
 31
0.0
100
AcDbText
 73
     3
  0
TEXT
  5
265
330
1F
100
AcDbEntity
  8
Englanninkieliset tekstit
 62
     7
370
    25
100
AcDbText
 10
-1613.399999983609
 20
-553.6300000005356
 30
0.0
 40
44.0
  1
Mass
 41
0.9
  7
Arial
 11
-1613.399999983609
 21
-566.6500000005356
 31
0.0
100
AcDbText
 73
     1
  0
TEXT
  5
266
330
1F
100
AcDbEntity
  8
Englanninkieliset tekstit
 62
     7
370
    25
100
AcDbText
 10
-1018.636035591845
 20
-660.8455597423563
 30
0.0
 40
44.0
  1
kg
 41
0.9
  7
Arial
 11
-1018.636035591845
 21
-616.8455597423563
 31
0.0
100
AcDbText
 73
     3
  0
TEXT
  5
267
330
1F
100
AcDbEntity
  8
Englanninkieliset tekstit
 62
     7
370
    25
100
AcDbText
 10
-1606.397830215228
 20
4538.941210934555
 30
0.0
 40
44.0
  1
Mark
 41
0.9
  7
Arial
 11
-1606.397830215228
 21
4525.921210934554
 31
0.0
100
AcDbText
 73
     1
  0
TEXT
  5
268
330
1F
100
AcDbEntity
  8
Englanninkieliset tekstit
 62
     7
370
    25
100
AcDbText
 10
-638.8473934924605
 20
4539.714660377457
 30
0.0
 40
44.0
  1
Revision
 41
0.9
  7
Arial
 11
-638.8473934924605
 21
4526.694660377457
 31
0.0
100
AcDbText
 73
     1
  0
TEXT
  5
269
330
1F
100
AcDbEntity
  8
Englanninkieliset tekstit
 62
     7
370
    25
100
AcDbText
 10
1286.596502292805
 20
4539.858703592364
 30
0.0
 40
44.0
  1
Date
 41
0.9
  7
Arial
 11
1286.596502292805
 21
4526.838703592363
 31
0.0
100
AcDbText
 73
     1
  0
TEXT
  5
26A
330
1F
100
AcDbEntity
  8
Englanninkieliset tekstit
 62
     7
370
    25
100
AcDbText
 10
1764.945032478718
 20
4537.307392690426
 30
0.0
 40
44.0
  1
Rev by
 41
0.9
  7
Arial
 11
1764.945032478718
 21
4524.287392690426
 31
0.0
100
AcDbText
 73
     1
  0
TEXT
  5
26B
330
1F
100
AcDbEntity
  8
Englanninkieliset tekstit
 62
     7
370
    25
100
AcDbText
 10
2063.349098846598
 20
4534.490751949917
 30
0.0
 40
44.0
  1
Acc
 41
0.9
  7
Arial
 11
2063.349098846598
 21
4578.490751949917
 31
0.0
100
AcDbText
 73
     3
  0
TEXT
  5
26C
330
1F
100
AcDbEntity
  8
Englanninkieliset tekstit
 62
     7
370
    25
100
AcDbText
 10
-1620.125000016404
 20
319.7954545453818
 30
0.0
 40
50.0
  1
0
 41
0.6
  7
Arial
 11
-1620.125000016404
 21
304.9999999999272
 31
0.0
100
AcDbText
 73
     1
  0
TEXT
  5
26D
330
1F
100
AcDbEntity
  8
Englanninkieliset tekstit
 62
     7
370
    25
100
AcDbText
 10
-1480.125000016404
 20
319.7954545453818
 30
0.0
 40
50.0
  1
Puosi_kaareva_luukku_LL-...
 41
0.6
  7
Arial
 11
-1480.125000016404
 21
304.9999999999272
 31
0.0
100
AcDbText
 73
     1
  0
TEXT
  5
26E
330
1F
100
AcDbEntity
  8
Englanninkieliset tekstit
 62
     7
370
    25
100
AcDbText
 10
-916.1250000164036
 20
319.7954545453818
 30
0.0
 40
50.0
  1
 
 41
0.6
  7
Arial
 11
-916.1250000164036
 21
304.9999999999272
 31
0.0
100
AcDbText
 73
     1
  0
TEXT
  5
26F
330
1F
100
AcDbEntity
  8
Englanninkieliset tekstit
 62
     7
370
    25
100
AcDbText
 10
63.87499998359635
 20
319.7954545453818
 30
0.0
 40
50.0
  1
 
 41
0.6
  7
Arial
 11
63.87499998359635
 21
304.9999999999272
 31
0.0
100
AcDbText
 73
     1
  0
TEXT
  5
270
330
1F
100
AcDbEntity
  8
Englanninkieliset tekstit
 62
     7
370
    25
100
AcDbText
 10
473.8749999835964
 20
319.7954545453818
 30
0.0
 40
50.0
  1
 
 41
0.6
  7
Arial
 11
473.8749999835964
 21
304.9999999999272
 31
0.0
100
AcDbText
 73
     1
  0
TEXT
  5
271
330
1F
100
AcDbEntity
  8
Englanninkieliset tekstit
 62
     7
370
    25
100
AcDbText
 10
1383.874999983596
 20
319.7954545453818
 30
0.0
 40
50.0
  1
 
 41
0.6
  7
Arial
 11
1383.874999983596
 21
304.9999999999272
 31
0.0
100
AcDbText
 73
     1
  0
TEXT
  5
272
330
1F
100
AcDbEntity
  8
Englanninkieliset tekstit
 62
     7
370
    25
100
AcDbText
 10
1723.874999983596
 20
319.7954545453818
 30
0.0
 40
50.0
  1
 
 41
0.6
  7
Arial
 11
1723.874999983596
 21
304.9999999999272
 31
0.0
100
AcDbText
 73
     1
  0
TEXT
  5
273
330
1F
100
AcDbEntity
  8
Englanninkieliset tekstit
 62
     7
370
    25
100
AcDbText
 10
2163.874999983596
 20
319.7954545453818
 30
0.0
 40
50.0
  1
1
 41
0.6
  7
Arial
 11
2163.874999983596
 21
304.9999999999272
 31
0.0
100
AcDbText
 73
     1
  0
TEXT
  5
274
330
1F
100
AcDbEntity
  8
Englanninkieliset tekstit
 62
     7
370
    25
100
AcDbText
 10
-1620.125000016404
 20
226.0454545453818
 30
0.0
 40
50.0
  1
0
 41
0.6
  7
Arial
 11
-1620.125000016404
 21
211.2499999999272
 31
0.0
100
AcDbText
 73
     1
  0
TEXT
  5
275
330
1F
100
AcDbEntity
  8
Englanninkieliset tekstit
 62
     7
370
    25
100
AcDbText
 10
-1480.125000016404
 20
226.0454545453818
 30
0.0
 40
50.0
  1
kaareva_tuhkalaatikko_mus...
 41
0.6
  7
Arial
 11
-1480.125000016404
 21
211.2499999999272
 31
0.0
100
AcDbText
 73
     1
  0
TEXT
  5
276
330
1F
100
AcDbEntity
  8
Englanninkieliset tekstit
 62
     7
370
    25
100
AcDbText
 10
-916.1250000164036
 20
226.0454545453818
 30
0.0
 40
50.0
  1
 
 41
0.6
  7
Arial
 11
-916.1250000164036
 21
211.2499999999272
 31
0.0
100
AcDbText
 73
     1
  0
TEXT
  5
277
330
1F
100
AcDbEntity
  8
Englanninkieliset tekstit
 62
     7
370
    25
100
AcDbText
 10
63.87499998359635
 20
226.0454545453818
 30
0.0
 40
50.0
  1
 
 41
0.6
  7
Arial
 11
63.87499998359635
 21
211.2499999999272
 31
0.0
100
AcDbText
 73
     1
  0
TEXT
  5
278
330
1F
100
AcDbEntity
  8
Englanninkieliset tekstit
 62
     7
370
    25
100
AcDbText
 10
473.8749999835964
 20
226.0454545453818
 30
0.0
 40
50.0
  1
 
 41
0.6
  7
Arial
 11
473.8749999835964
 21
211.2499999999272
 31
0.0
100
AcDbText
 73
     1
  0
TEXT
  5
279
330
1F
100
AcDbEntity
  8
Englanninkieliset tekstit
 62
     7
370
    25
100
AcDbText
 10
1383.874999983596
 20
226.0454545453818
 30
0.0
 40
50.0
  1
 
 41
0.6
  7
Arial
 11
1383.874999983596
 21
211.2499999999272
 31
0.0
100
AcDbText
 73
     1
  0
TEXT
  5
27A
330
1F
100
AcDbEntity
  8
Englanninkieliset tekstit
 62
     7
370
    25
100
AcDbText
 10
1723.874999983596
 20
226.0454545453818
 30
0.0
 40
50.0
  1
 
 41
0.6
  7
Arial
 11
1723.874999983596
 21
211.2499999999272
 31
0.0
100
AcDbText
 73
     1
  0
TEXT
  5
27B
330
1F
100
AcDbEntity
  8
Englanninkieliset tekstit
 62
     7
370
    25
100
AcDbText
 10
2163.874999983596
 20
226.0454545453818
 30
0.0
 40
50.0
  1
1
 41
0.6
  7
Arial
 11
2163.874999983596
 21
211.2499999999272
 31
0.0
100
AcDbText
 73
     1
  0
TEXT
  5
27C
330
1F
100
AcDbEntity
  8
Englanninkieliset tekstit
 62
     7
370
    25
100
AcDbText
 10
-1620.125000016404
 20
132.2954545453818
 30
0.0
 40
50.0
  1
0
 41
0.6
  7
Arial
 11
-1620.125000016404
 21
117.4999999999272
 31
0.0
100
AcDbText
 73
     1
  0
TEXT
  5
27D
330
1F
100
AcDbEntity
  8
Englanninkieliset tekstit
 62
     7
370
    25
100
AcDbText
 10
-1480.125000016404
 20
132.2954545453818
 30
0.0
 40
50.0
  1
alaliitosvilla_120x180
 41
0.6
  7
Arial
 11
-1480.125000016404
 21
117.4999999999272
 31
0.0
100
AcDbText
 73
     1
  0
TEXT
  5
27E
330
1F
100
AcDbEntity
  8
Englanninkieliset tekstit
 62
     7
370
    25
100
AcDbText
 10
-916.1250000164036
 20
132.2954545453818
 30
0.0
 40
50.0
  1
 
 41
0.6
  7
Arial
 11
-916.1250000164036
 21
117.4999999999272
 31
0.0
100
AcDbText
 73
     1
  0
TEXT
  5
27F
330
1F
100
AcDbEntity
  8
Englanninkieliset tekstit
 62
     7
370
    25
100
AcDbText
 10
63.87499998359635
 20
132.2954545453818
 30
0.0
 40
50.0
  1
 
 41
0.6
  7
Arial
 11
63.87499998359635
 21
117.4999999999272
 31
0.0
100
AcDbText
 73
     1
  0
TEXT
  5
280
330
1F
100
AcDbEntity
  8
Englanninkieliset tekstit
 62
     7
370
    25
100
AcDbText
 10
473.8749999835964
 20
132.2954545453818
 30
0.0
 40
50.0
  1
 
 41
0.6
  7
Arial
 11
473.8749999835964
 21
117.4999999999272
 31
0.0
100
AcDbText
 73
     1
  0
TEXT
  5
281
330
1F
100
AcDbEntity
  8
Englanninkieliset tekstit
 62
     7
370
    25
100
AcDbText
 10
1383.874999983596
 20
132.2954545453818
 30
0.0
 40
50.0
  1
 
 41
0.6
  7
Arial
 11
1383.874999983596
 21
117.4999999999272
 31
0.0
100
AcDbText
 73
     1
  0
TEXT
  5
282
330
1F
100
AcDbEntity
  8
Englanninkieliset tekstit
 62
     7
370
    25
100
AcDbText
 10
1723.874999983596
 20
132.2954545453818
 30
0.0
 40
50.0
  1
 
 41
0.6
  7
Arial
 11
1723.874999983596
 21
117.4999999999272
 31
0.0
100
AcDbText
 73
     1
  0
TEXT
  5
283
330
1F
100
AcDbEntity
  8
Englanninkieliset tekstit
 62
     7
370
    25
100
AcDbText
 10
2163.874999983596
 20
132.2954545453818
 30
0.0
 40
50.0
  1
1
 41
0.6
  7
Arial
 11
2163.874999983596
 21
117.4999999999272
 31
0.0
100
AcDbText
 73
     1
  0
TEXT
  5
284
330
1F
100
AcDbEntity
  8
Englanninkieliset tekstit
 62
     7
370
    25
100
AcDbText
 10
-1620.125000016404
 20
38.54545454538179
 30
0.0
 40
50.0
  1
0
 41
0.6
  7
Arial
 11
-1620.125000016404
 21
23.74999999992724
 31
0.0
100
AcDbText
 73
     1
  0
TEXT
  5
285
330
1F
100
AcDbEntity
  8
Englanninkieliset tekstit
 62
     7
370
    25
100
AcDbText
 10
-1480.125000016404
 20
38.54545454538179
 30
0.0
 40
50.0
  1
hormiliitosputki_120x180
 41
0.6
  7
Arial
 11
-1480.125000016404
 21
23.74999999992724
 31
0.0
100
AcDbText
 73
     1
  0
TEXT
  5
286
330
1F
100
AcDbEntity
  8
Englanninkieliset tekstit
 62
     7
370
    25
100
AcDbText
 10
-916.1250000164036
 20
38.54545454538179
 30
0.0
 40
50.0
  1
 
 41
0.6
  7
Arial
 11
-916.1250000164036
 21
23.74999999992724
 31
0.0
100
AcDbText
 73
     1
  0
TEXT
  5
287
330
1F
100
AcDbEntity
  8
Englanninkieliset tekstit
 62
     7
370
    25
100
AcDbText
 10
63.87499998359635
 20
38.54545454538179
 30
0.0
 40
50.0
  1
 
 41
0.6
  7
Arial
 11
63.87499998359635
 21
23.74999999992724
 31
0.0
100
AcDbText
 73
     1
  0
TEXT
  5
288
330
1F
100
AcDbEntity
  8
Englanninkieliset tekstit
 62
     7
370
    25
100
AcDbText
 10
473.8749999835964
 20
38.54545454538179
 30
0.0
 40
50.0
  1
 
 41
0.6
  7
Arial
 11
473.8749999835964
 21
23.74999999992724
 31
0.0
100
AcDbText
 73
     1
  0
TEXT
  5
289
330
1F
100
AcDbEntity
  8
Englanninkieliset tekstit
 62
     7
370
    25
100
AcDbText
 10
1383.874999983596
 20
38.54545454538179
 30
0.0
 40
50.0
  1
 
 41
0.6
  7
Arial
 11
1383.874999983596
 21
23.74999999992724
 31
0.0
100
AcDbText
 73
     1
  0
TEXT
  5
28A
330
1F
100
AcDbEntity
  8
Englanninkieliset tekstit
 62
     7
370
    25
100
AcDbText
 10
1723.874999983596
 20
38.54545454538179
 30
0.0
 40
50.0
  1
 
 41
0.6
  7
Arial
 11
1723.874999983596
 21
23.74999999992724
 31
0.0
100
AcDbText
 73
     1
  0
TEXT
  5
28B
330
1F
100
AcDbEntity
  8
Englanninkieliset tekstit
 62
     7
370
    25
100
AcDbText
 10
2163.874999983596
 20
38.54545454538179
 30
0.0
 40
50.0
  1
1
 41
0.6
  7
Arial
 11
2163.874999983596
 21
23.74999999992724
 31
0.0
100
AcDbText
 73
     1
  0
TEXT
  5
28C
330
1F
100
AcDbEntity
  8
Englanninkieliset tekstit
 62
     7
370
    25
100
AcDbText
 10
-1620.125000016404
 20
-55.20454545461821
 30
0.0
 40
50.0
  1
0
 41
0.6
  7
Arial
 11
-1620.125000016404
 21
-70.00000000007276
 31
0.0
100
AcDbText
 73
     1
  0
TEXT
  5
28D
330
1F
100
AcDbEntity
  8
Englanninkieliset tekstit
 62
     7
370
    25
100
AcDbText
 10
-1480.125000016404
 20
-55.20454545461821
 30
0.0
 40
50.0
  1
J60000_upot_laatikkomalli
 41
0.6
  7
Arial
 11
-1480.125000016404
 21
-70.00000000007276
 31
0.0
100
AcDbText
 73
     1
  0
TEXT
  5
28E
330
1F
100
AcDbEntity
  8
Englanninkieliset tekstit
 62
     7
370
    25
100
AcDbText
 10
-916.1250000164036
 20
-55.20454545461821
 30
0.0
 40
50.0
  1
 
 41
0.6
  7
Arial
 11
-916.1250000164036
 21
-70.00000000007276
 31
0.0
100
AcDbText
 73
     1
  0
TEXT
  5
28F
330
1F
100
AcDbEntity
  8
Englanninkieliset tekstit
 62
     7
370
    25
100
AcDbText
 10
63.87499998359635
 20
-55.20454545461821
 30
0.0
 40
50.0
  1
 
 41
0.6
  7
Arial
 11
63.87499998359635
 21
-70.00000000007276
 31
0.0
100
AcDbText
 73
     1
  0
TEXT
  5
290
330
1F
100
AcDbEntity
  8
Englanninkieliset tekstit
 62
     7
370
    25
100
AcDbText
 10
473.8749999835964
 20
-55.20454545461821
 30
0.0
 40
50.0
  1
 
 41
0.6
  7
Arial
 11
473.8749999835964
 21
-70.00000000007276
 31
0.0
100
AcDbText
 73
     1
  0
TEXT
  5
291
330
1F
100
AcDbEntity
  8
Englanninkieliset tekstit
 62
     7
370
    25
100
AcDbText
 10
1383.874999983596
 20
-55.20454545461821
 30
0.0
 40
50.0
  1
 
 41
0.6
  7
Arial
 11
1383.874999983596
 21
-70.00000000007276
 31
0.0
100
AcDbText
 73
     1
  0
TEXT
  5
292
330
1F
100
AcDbEntity
  8
Englanninkieliset tekstit
 62
     7
370
    25
100
AcDbText
 10
1723.874999983596
 20
-55.20454545461821
 30
0.0
 40
50.0
  1
 
 41
0.6
  7
Arial
 11
1723.874999983596
 21
-70.00000000007276
 31
0.0
100
AcDbText
 73
     1
  0
TEXT
  5
293
330
1F
100
AcDbEntity
  8
Englanninkieliset tekstit
 62
     7
370
    25
100
AcDbText
 10
2163.874999983596
 20
-55.20454545461821
 30
0.0
 40
50.0
  1
1
 41
0.6
  7
Arial
 11
2163.874999983596
 21
-70.00000000007276
 31
0.0
100
AcDbText
 73
     1
  0
LINE
  5
294
330
1F
100
AcDbEntity
  8
Englanninkieliset tekstit
 62
   160
420
     9471
370
    25
100
AcDbLine
 10
-1637.000000016404
 20
-80.00000000007276
 30
0.0
 11
-1637.000000016404
 21
388.7499999999272
 31
0.0
  0
LINE
  5
295
330
1F
100
AcDbEntity
  8
Englanninkieliset tekstit
 62
   160
420
     9471
370
    25
100
AcDbLine
 10
-1637.000000016404
 20
388.7499999999272
 30
0.0
 11
2286.999999983596
 21
388.7499999999272
 31
0.0
  0
LINE
  5
296
330
1F
100
AcDbEntity
  8
Englanninkieliset tekstit
 62
   160
420
     9471
370
    25
100
AcDbLine
 10
2286.999999983596
 20
388.7499999999272
 30
0.0
 11
2286.999999983596
 21
-80.00000000007276
 31
0.0
  0
LINE
  5
297
330
1F
100
AcDbEntity
  8
Englanninkieliset tekstit
 62
   160
420
     9471
370
    25
100
AcDbLine
 10
-1637.000000016404
 20
294.9999999999272
 30
0.0
 11
2286.999999983596
 21
294.9999999999272
 31
0.0
  0
LINE
  5
298
330
1F
100
AcDbEntity
  8
Englanninkieliset tekstit
 62
   160
420
     9471
370
    25
100
AcDbLine
 10
-1497.000000016404
 20
294.9999999999272
 30
0.0
 11
-1497.000000016404
 21
388.7499999999272
 31
0.0
  0
LINE
  5
299
330
1F
100
AcDbEntity
  8
Englanninkieliset tekstit
 62
   160
420
     9471
370
    25
100
AcDbLine
 10
-933.0000000164036
 20
294.9999999999272
 30
0.0
 11
-933.0000000164036
 21
388.7499999999272
 31
0.0
  0
LINE
  5
29A
330
1F
100
AcDbEntity
  8
Englanninkieliset tekstit
 62
   160
420
     9471
370
    25
100
AcDbLine
 10
46.99999998359635
 20
294.9999999999272
 30
0.0
 11
46.99999998359635
 21
388.7499999999272
 31
0.0
  0
LINE
  5
29B
330
1F
100
AcDbEntity
  8
Englanninkieliset tekstit
 62
   160
420
     9471
370
    25
100
AcDbLine
 10
456.9999999835964
 20
294.9999999999272
 30
0.0
 11
456.9999999835964
 21
388.7499999999272
 31
0.0
  0
LINE
  5
29C
330
1F
100
AcDbEntity
  8
Englanninkieliset tekstit
 62
   160
420
     9471
370
    25
100
AcDbLine
 10
1366.999999983596
 20
294.9999999999272
 30
0.0
 11
1366.999999983596
 21
388.7499999999272
 31
0.0
  0
LINE
  5
29D
330
1F
100
AcDbEntity
  8
Englanninkieliset tekstit
 62
   160
420
     9471
370
    25
100
AcDbLine
 10
1706.999999983596
 20
294.9999999999272
 30
0.0
 11
1706.999999983596
 21
388.7499999999272
 31
0.0
  0
LINE
  5
29E
330
1F
100
AcDbEntity
  8
Englanninkieliset tekstit
 62
   160
420
     9471
370
    25
100
AcDbLine
 10
2146.999999983596
 20
294.9999999999272
 30
0.0
 11
2146.999999983596
 21
388.7499999999272
 31
0.0
  0
LINE
  5
29F
330
1F
100
AcDbEntity
  8
Englanninkieliset tekstit
 62
   160
420
     9471
370
    25
100
AcDbLine
 10
-1637.000000016404
 20
201.2499999999272
 30
0.0
 11
2286.999999983596
 21
201.2499999999272
 31
0.0
  0
LINE
  5
2A0
330
1F
100
AcDbEntity
  8
Englanninkieliset tekstit
 62
   160
420
     9471
370
    25
100
AcDbLine
 10
-1497.000000016404
 20
201.2499999999272
 30
0.0
 11
-1497.000000016404
 21
294.9999999999272
 31
0.0
  0
LINE
  5
2A1
330
1F
100
AcDbEntity
  8
Englanninkieliset tekstit
 62
   160
420
     9471
370
    25
100
AcDbLine
 10
-933.0000000164036
 20
201.2499999999272
 30
0.0
 11
-933.0000000164036
 21
294.9999999999272
 31
0.0
  0
LINE
  5
2A2
330
1F
100
AcDbEntity
  8
Englanninkieliset tekstit
 62
   160
420
     9471
370
    25
100
AcDbLine
 10
46.99999998359635
 20
201.2499999999272
 30
0.0
 11
46.99999998359635
 21
294.9999999999272
 31
0.0
  0
LINE
  5
2A3
330
1F
100
AcDbEntity
  8
Englanninkieliset tekstit
 62
   160
420
     9471
370
    25
100
AcDbLine
 10
456.9999999835964
 20
201.2499999999272
 30
0.0
 11
456.9999999835964
 21
294.9999999999272
 31
0.0
  0
LINE
  5
2A4
330
1F
100
AcDbEntity
  8
Englanninkieliset tekstit
 62
   160
420
     9471
370
    25
100
AcDbLine
 10
1366.999999983596
 20
201.2499999999272
 30
0.0
 11
1366.999999983596
 21
294.9999999999272
 31
0.0
  0
LINE
  5
2A5
330
1F
100
AcDbEntity
  8
Englanninkieliset tekstit
 62
   160
420
     9471
370
    25
100
AcDbLine
 10
1706.999999983596
 20
201.2499999999272
 30
0.0
 11
1706.999999983596
 21
294.9999999999272
 31
0.0
  0
LINE
  5
2A6
330
1F
100
AcDbEntity
  8
Englanninkieliset tekstit
 62
   160
420
     9471
370
    25
100
AcDbLine
 10
2146.999999983596
 20
201.2499999999272
 30
0.0
 11
2146.999999983596
 21
294.9999999999272
 31
0.0
  0
LINE
  5
2A7
330
1F
100
AcDbEntity
  8
Englanninkieliset tekstit
 62
   160
420
     9471
370
    25
100
AcDbLine
 10
-1637.000000016404
 20
107.4999999999272
 30
0.0
 11
2286.999999983596
 21
107.4999999999272
 31
0.0
  0
LINE
  5
2A8
330
1F
100
AcDbEntity
  8
Englanninkieliset tekstit
 62
   160
420
     9471
370
    25
100
AcDbLine
 10
-1497.000000016404
 20
107.4999999999272
 30
0.0
 11
-1497.000000016404
 21
201.2499999999272
 31
0.0
  0
LINE
  5
2A9
330
1F
100
AcDbEntity
  8
Englanninkieliset tekstit
 62
   160
420
     9471
370
    25
100
AcDbLine
 10
-933.0000000164036
 20
107.4999999999272
 30
0.0
 11
-933.0000000164036
 21
201.2499999999272
 31
0.0
  0
LINE
  5
2AA
330
1F
100
AcDbEntity
  8
Englanninkieliset tekstit
 62
   160
420
     9471
370
    25
100
AcDbLine
 10
46.99999998359635
 20
107.4999999999272
 30
0.0
 11
46.99999998359635
 21
201.2499999999272
 31
0.0
  0
LINE
  5
2AB
330
1F
100
AcDbEntity
  8
Englanninkieliset tekstit
 62
   160
420
     9471
370
    25
100
AcDbLine
 10
456.9999999835964
 20
107.4999999999272
 30
0.0
 11
456.9999999835964
 21
201.2499999999272
 31
0.0
  0
LINE
  5
2AC
330
1F
100
AcDbEntity
  8
Englanninkieliset tekstit
 62
   160
420
     9471
370
    25
100
AcDbLine
 10
1366.999999983596
 20
107.4999999999272
 30
0.0
 11
1366.999999983596
 21
201.2499999999272
 31
0.0
  0
LINE
  5
2AD
330
1F
100
AcDbEntity
  8
Englanninkieliset tekstit
 62
   160
420
     9471
370
    25
100
AcDbLine
 10
1706.999999983596
 20
107.4999999999272
 30
0.0
 11
1706.999999983596
 21
201.2499999999272
 31
0.0
  0
LINE
  5
2AE
330
1F
100
AcDbEntity
  8
Englanninkieliset tekstit
 62
   160
420
     9471
370
    25
100
AcDbLine
 10
2146.999999983596
 20
107.4999999999272
 30
0.0
 11
2146.999999983596
 21
201.2499999999272
 31
0.0
  0
LINE
  5
2AF
330
1F
100
AcDbEntity
  8
Englanninkieliset tekstit
 62
   160
420
     9471
370
    25
100
AcDbLine
 10
-1637.000000016404
 20
13.74999999992724
 30
0.0
 11
2286.999999983596
 21
13.74999999992724
 31
0.0
  0
LINE
  5
2B0
330
1F
100
AcDbEntity
  8
Englanninkieliset tekstit
 62
   160
420
     9471
370
    25
100
AcDbLine
 10
-1497.000000016404
 20
13.74999999992724
 30
0.0
 11
-1497.000000016404
 21
107.4999999999272
 31
0.0
  0
LINE
  5
2B1
330
1F
100
AcDbEntity
  8
Englanninkieliset tekstit
 62
   160
420
     9471
370
    25
100
AcDbLine
 10
-933.0000000164036
 20
13.74999999992724
 30
0.0
 11
-933.0000000164036
 21
107.4999999999272
 31
0.0
  0
LINE
  5
2B2
330
1F
100
AcDbEntity
  8
Englanninkieliset tekstit
 62
   160
420
     9471
370
    25
100
AcDbLine
 10
46.99999998359635
 20
13.74999999992724
 30
0.0
 11
46.99999998359635
 21
107.4999999999272
 31
0.0
  0
LINE
  5
2B3
330
1F
100
AcDbEntity
  8
Englanninkieliset tekstit
 62
   160
420
     9471
370
    25
100
AcDbLine
 10
456.9999999835964
 20
13.74999999992724
 30
0.0
 11
456.9999999835964
 21
107.4999999999272
 31
0.0
  0
LINE
  5
2B4
330
1F
100
AcDbEntity
  8
Englanninkieliset tekstit
 62
   160
420
     9471
370
    25
100
AcDbLine
 10
1366.999999983596
 20
13.74999999992724
 30
0.0
 11
1366.999999983596
 21
107.4999999999272
 31
0.0
  0
LINE
  5
2B5
330
1F
100
AcDbEntity
  8
Englanninkieliset tekstit
 62
   160
420
     9471
370
    25
100
AcDbLine
 10
1706.999999983596
 20
13.74999999992724
 30
0.0
 11
1706.999999983596
 21
107.4999999999272
 31
0.0
  0
LINE
  5
2B6
330
1F
100
AcDbEntity
  8
Englanninkieliset tekstit
 62
   160
420
     9471
370
    25
100
AcDbLine
 10
2146.999999983596
 20
13.74999999992724
 30
0.0
 11
2146.999999983596
 21
107.4999999999272
 31
0.0
  0
LINE
  5
2B7
330
1F
100
AcDbEntity
  8
Englanninkieliset tekstit
 62
   160
420
     9471
370
    25
100
AcDbLine
 10
-1637.000000016404
 20
-80.00000000007276
 30
0.0
 11
2286.999999983596
 21
-80.00000000007276
 31
0.0
  0
LINE
  5
2B8
330
1F
100
AcDbEntity
  8
Englanninkieliset tekstit
 62
   160
420
     9471
370
    25
100
AcDbLine
 10
-1497.000000016404
 20
-80.00000000007276
 30
0.0
 11
-1497.000000016404
 21
13.74999999992724
 31
0.0
  0
LINE
  5
2B9
330
1F
100
AcDbEntity
  8
Englanninkieliset tekstit
 62
   160
420
     9471
370
    25
100
AcDbLine
 10
-933.0000000164036
 20
-80.00000000007276
 30
0.0
 11
-933.0000000164036
 21
13.74999999992724
 31
0.0
  0
LINE
  5
2BA
330
1F
100
AcDbEntity
  8
Englanninkieliset tekstit
 62
   160
420
     9471
370
    25
100
AcDbLine
 10
46.99999998359635
 20
-80.00000000007276
 30
0.0
 11
46.99999998359635
 21
13.74999999992724
 31
0.0
  0
LINE
  5
2BB
330
1F
100
AcDbEntity
  8
Englanninkieliset tekstit
 62
   160
420
     9471
370
    25
100
AcDbLine
 10
456.9999999835964
 20
-80.00000000007276
 30
0.0
 11
456.9999999835964
 21
13.74999999992724
 31
0.0
  0
LINE
  5
2BC
330
1F
100
AcDbEntity
  8
Englanninkieliset tekstit
 62
   160
420
     9471
370
    25
100
AcDbLine
 10
1366.999999983596
 20
-80.00000000007276
 30
0.0
 11
1366.999999983596
 21
13.74999999992724
 31
0.0
  0
LINE
  5
2BD
330
1F
100
AcDbEntity
  8
Englanninkieliset tekstit
 62
   160
420
     9471
370
    25
100
AcDbLine
 10
1706.999999983596
 20
-80.00000000007276
 30
0.0
 11
1706.999999983596
 21
13.74999999992724
 31
0.0
  0
LINE
  5
2BE
330
1F
100
AcDbEntity
  8
Englanninkieliset tekstit
 62
   160
420
     9471
370
    25
100
AcDbLine
 10
2146.999999983596
 20
-80.00000000007276
 30
0.0
 11
2146.999999983596
 21
13.74999999992724
 31
0.0
  0
DIMENSION
  5
2C0
330
1F
100
AcDbEntity
  8
Mitat
 62
     7
370
    35
100
AcDbDimension
  2
*D8
 10
73.66017179417912
 20
1567.35999999999
 30
0.0
 11
-258.1000000001709
 21
1567.35999999999
 31
0.0
 70
   160
 71
     5
 42
650.0
 73
     0
 74
     0
 75
     0
  3
Vertex Style
100
AcDbAlignedDimension
 13
-576.3398282058208
 23
1689.33982821999
 33
0.0
 14
73.66017179417912
 24
1689.33982821999
 34
0.0
100
AcDbRotatedDimension
1001
ACAD
1000
DSTYLE
1002
{
1070
   141
1040
0.0
1070
   340
1005
70
1070
   147
1040
1.09375
1070
   140
1040
2.5
1070
   177
1070
   160
1070
   176
1070
   160
1070
   178
1070
     7
1070
   371
1070
    25
1070
     3
1000
Ø<>
1002
}
  0
DIMENSION
  5
2CF
330
1F
100
AcDbEntity
  8
Mitat
 62
     7
370
    35
100
AcDbDimension
  2
*D9
 10
-696.4499999998209
 20
3439.33982821999
 30
0.0
 11
-696.4499999998209
 21
2572.26999999924
 31
0.0
 70
   160
 71
     5
 42
1750.0
 73
     0
 74
     0
 75
     0
  3
Vertex Style
100
AcDbAlignedDimension
 13
-576.3398282058209
 23
1689.33982821999
 33
0.0
 14
-576.3398282058209
 24
3439.33982821999
 34
0.0
 50
90.0
100
AcDbRotatedDimension
1001
ACAD
1000
DSTYLE
1002
{
1070
   141
1040
0.0
1070
   340
1005
70
1070
   147
1040
1.09375
1070
   140
1040
2.5
1070
   177
1070
   160
1070
   176
1070
   160
1070
   178
1070
     7
1070
   371
1070
    25
1002
}
  0
DIMENSION
  5
2DD
330
1F
100
AcDbEntity
  8
Mitat
 62
     7
370
    35
100
AcDbDimension
  2
*D10
 10
1453.862786896179
 20
1114.33982821999
 30
0.0
 11
1453.862786896179
 21
895.2790970644896
 31
0.0
 70
   160
 71
     5
 42
450.0
 73
     0
 74
     0
 75
     0
  3
Vertex Style
100
AcDbAlignedDimension
 13
998.6601717941792
 23
664.3398282199896
 33
0.0
 14
998.6601717941792
 24
1114.33982821999
 34
0.0
 50
90.0
100
AcDbRotatedDimension
1001
ACAD
1000
DSTYLE
1002
{
1070
   141
1040
0.0
1070
   340
1005
70
1070
   147
1040
1.09375
1070
   140
1040
2.5
1070
   177
1070
   160
1070
   176
1070
   160
1070
   178
1070
     7
1070
   371
1070
    25
1002
}
  0
DIMENSION
  5
2EB
330
1F
100
AcDbEntity
  8
Mitat
 62
     7
370
    35
100
AcDbDimension
  2
*D11
 10
-704.7199999998209
 20
1214.33982821999
 30
0.0
 11
-704.7199999998209
 21
905.6900000001398
 31
0.0
 70
   160
 71
     5
 42
649.9999999999999
 73
     0
 74
     0
 75
     0
  3
Vertex Style
100
AcDbAlignedDimension
 13
-251.3398282058209
 23
564.3398282199897
 33
0.0
 14
-251.3398282058209
 24
1214.33982821999
 34
0.0
 50
90.0
100
AcDbRotatedDimension
1001
ACAD
1000
DSTYLE
1002
{
1070
   141
1040
0.0
1070
   340
1005
70
1070
   147
1040
1.09375
1070
   140
1040
2.5
1070
   177
1070
   160
1070
   176
1070
   160
1070
   178
1070
     7
1070
   371
1070
    25
1002
}
  0
INSERT
  5
2FE
330
1F
100
AcDbEntity
  8
0
 62
     7
100
AcDbBlockReference
  2
J60000_upot_laatikko_kok_3_282f335d-dbca-4a4d-9363-f0585a90d1c7
 10
-251.3398282058209
 20
1689.33982821999
 30
0.0
  0
INSERT
  5
2FF
330
1F
100
AcDbEntity
  8
0
 62
     7
100
AcDbBlockReference
  2
J60000_upot_laatikko_kok_4_fc17a198-2aab-4f35-b523-73cf287336ac
 10
998.6601717941792
 20
889.3398282199895
 30
0.0
  0
INSERT
  5
300
330
1F
100
AcDbEntity
  8
0
 62
     7
100
AcDbBlockReference
  2
J60000_upot_laatikko_kok_5_68ffd776-606c-477d-a453-da44f339cd9b
 10
-251.3398282058209
 20
889.3398282199895
 30
0.0
  0
LINE
  5
304
330
1F
100
AcDbEntity
  8
Muut viivat
  6
Yhtenäinen
 62
     7
 48
60.0
370
    25
100
AcDbLine
 10
-148.4650953238721
 20
942.7556135912165
 30
0.0
 11
-121.3702013238723
 21
786.4394705912165
 31
0.0
  0
ARC
  5
305
330
1F
100
AcDbEntity
  8
Muut viivat
  6
Yhtenäinen
 62
     7
 48
60.0
370
    25
100
AcDbCircle
 10
-401.0155555075979
 20
789.8552003962124
 30
0.0
 40
19.99997020512097
100
AcDbArc
 50
309.9999698414455
 51
350.1664348063559
  0
LINE
  5
306
330
1F
100
AcDbEntity
  8
Muut viivat
  6
Yhtenäinen
 62
     7
 48
60.0
370
    25
100
AcDbLine
 10
-481.1063249782411
 20
745.7657820394242
 30
0.0
 11
-454.3416935300323
 21
719.0011505912155
 31
0.0
  0
LINE
  5
307
330
1F
100
AcDbEntity
  8
Muut viivat
  6
Yhtenäinen
 62
     7
 48
60.0
370
    25
100
AcDbLine
 10
-454.3416935300323
 20
719.0011505912155
 30
0.0
 11
-388.1598305300321
 21
774.5343275912148
 31
0.0
  0
LINE
  5
308
330
1F
100
AcDbEntity
  8
Muut viivat
  6
Yhtenäinen
 62
     7
 48
60.0
370
    25
100
AcDbLine
 10
-526.9554575895519
 20
717.1160643562013
 30
0.0
 11
-481.1063249782411
 21
745.7657820394242
 31
0.0
  0
ARC
  5
309
330
1F
100
AcDbEntity
  8
Muut viivat
  6
Yhtenäinen
 62
     7
 48
60.0
370
    25
100
AcDbCircle
 10
-101.6640703463066
 20
789.8552003962141
 30
0.0
 40
19.99997020512082
100
AcDbArc
 50
189.8335651936439
 51
230.0000301585543
  0
LINE
  5
30A
330
1F
100
AcDbEntity
  8
Muut viivat
  6
Yhtenäinen
 62
     7
 48
60.0
370
    25
100
AcDbLine
 10
-334.5083725300323
 20
959.3398665912155
 30
0.0
 11
-168.1712533238725
 21
959.3398665912167
 31
0.0
  0
LINE
  5
30B
330
1F
100
AcDbEntity
  8
Muut viivat
  6
Yhtenäinen
 62
     7
 48
60.0
370
    25
100
AcDbLine
 10
-48.33793132387279
 20
719.0011505912153
 30
0.0
 11
-21.5733222857499
 21
745.7657596293382
 31
0.0
  0
LINE
  5
30C
330
1F
100
AcDbEntity
  8
Muut viivat
  6
Yhtenäinen
 62
     7
 48
60.0
370
    25
100
AcDbLine
 10
-21.5733222857499
 20
745.7657596293382
 30
0.0
 11
24.27579368110719
 21
717.1160523588097
 31
0.0
  0
ARC
  5
30D
330
1F
100
AcDbEntity
  8
Muut viivat
  6
Yhtenäinen
 62
     7
 48
60.0
370
    25
100
AcDbCircle
 10
-168.171242522773
 20
939.3398797062893
 30
0.0
 40
19.99998688493038
100
AcDbArc
 50
9.8335687734818
 51
90.00003094289104
  0
LINE
  5
30E
330
1F
100
AcDbEntity
  8
Muut viivat
  6
Yhtenäinen
 62
     7
 48
60.0
370
    25
100
AcDbLine
 10
-381.3094245300321
 20
786.4394705912147
 30
0.0
 11
-354.2145305300318
 21
942.7556135912147
 31
0.0
  0
LINE
  5
30F
330
1F
100
AcDbEntity
  8
Muut viivat
  6
Yhtenäinen
 62
     7
 48
60.0
370
    25
100
AcDbLine
 10
-114.5197953238725
 20
774.5343275912165
 30
0.0
 11
-48.33793132387279
 21
719.0011505912153
 31
0.0
  0
ARC
  5
310
330
1F
100
AcDbEntity
  8
Muut viivat
  6
Yhtenäinen
 62
     7
 48
60.0
370
    25
100
AcDbCircle
 10
-334.5083833311304
 20
939.3398797062874
 30
0.0
 40
19.99998688493089
100
AcDbArc
 50
89.99996905711276
 51
170.1664312265186
  0
LINE
  5
311
330
1F
100
AcDbEntity
  8
Muut viivat
  6
Yhtenäinen
 62
     7
 48
60.0
370
    25
100
AcDbLine
 10
1101.534904676128
 20
942.7556135912165
 30
0.0
 11
1128.629798676128
 21
786.4394705912165
 31
0.0
  0
ARC
  5
312
330
1F
100
AcDbEntity
  8
Muut viivat
  6
Yhtenäinen
 62
     7
 48
60.0
370
    25
100
AcDbCircle
 10
848.9844444924022
 20
789.8552003962124
 30
0.0
 40
19.99997020512097
100
AcDbArc
 50
309.9999698414455
 51
350.1664348063559
  0
LINE
  5
313
330
1F
100
AcDbEntity
  8
Muut viivat
  6
Yhtenäinen
 62
     7
 48
60.0
370
    25
100
AcDbLine
 10
768.893675021759
 20
745.7657820394242
 30
0.0
 11
795.6583064699678
 21
719.0011505912155
 31
0.0
  0
LINE
  5
314
330
1F
100
AcDbEntity
  8
Muut viivat
  6
Yhtenäinen
 62
     7
 48
60.0
370
    25
100
AcDbLine
 10
795.6583064699678
 20
719.0011505912155
 30
0.0
 11
861.840169469968
 21
774.5343275912148
 31
0.0
  0
LINE
  5
315
330
1F
100
AcDbEntity
  8
Muut viivat
  6
Yhtenäinen
 62
     7
 48
60.0
370
    25
100
AcDbLine
 10
723.0445424104482
 20
717.1160643562013
 30
0.0
 11
768.893675021759
 21
745.7657820394242
 31
0.0
  0
ARC
  5
316
330
1F
100
AcDbEntity
  8
Muut viivat
  6
Yhtenäinen
 62
     7
 48
60.0
370
    25
100
AcDbCircle
 10
1148.335929653693
 20
789.8552003962141
 30
0.0
 40
19.99997020512082
100
AcDbArc
 50
189.8335651936439
 51
230.0000301585543
  0
LINE
  5
317
330
1F
100
AcDbEntity
  8
Muut viivat
  6
Yhtenäinen
 62
     7
 48
60.0
370
    25
100
AcDbLine
 10
915.4916274699679
 20
959.3398665912155
 30
0.0
 11
1081.828746676128
 21
959.3398665912167
 31
0.0
  0
LINE
  5
318
330
1F
100
AcDbEntity
  8
Muut viivat
  6
Yhtenäinen
 62
     7
 48
60.0
370
    25
100
AcDbLine
 10
1201.662068676127
 20
719.0011505912153
 30
0.0
 11
1228.42667771425
 21
745.7657596293382
 31
0.0
  0
LINE
  5
319
330
1F
100
AcDbEntity
  8
Muut viivat
  6
Yhtenäinen
 62
     7
 48
60.0
370
    25
100
AcDbLine
 10
1228.42667771425
 20
745.7657596293382
 30
0.0
 11
1274.275793681107
 21
717.1160523588097
 31
0.0
  0
ARC
  5
31A
330
1F
100
AcDbEntity
  8
Muut viivat
  6
Yhtenäinen
 62
     7
 48
60.0
370
    25
100
AcDbCircle
 10
1081.828757477227
 20
939.3398797062893
 30
0.0
 40
19.99998688493038
100
AcDbArc
 50
9.8335687734818
 51
90.00003094289104
  0
LINE
  5
31B
330
1F
100
AcDbEntity
  8
Muut viivat
  6
Yhtenäinen
 62
     7
 48
60.0
370
    25
100
AcDbLine
 10
868.690575469968
 20
786.4394705912147
 30
0.0
 11
895.7854694699683
 21
942.7556135912147
 31
0.0
  0
LINE
  5
31C
330
1F
100
AcDbEntity
  8
Muut viivat
  6
Yhtenäinen
 62
     7
 48
60.0
370
    25
100
AcDbLine
 10
1135.480204676128
 20
774.5343275912165
 30
0.0
 11
1201.662068676127
 21
719.0011505912153
 31
0.0
  0
ARC
  5
31D
330
1F
100
AcDbEntity
  8
Muut viivat
  6
Yhtenäinen
 62
     7
 48
60.0
370
    25
100
AcDbCircle
 10
915.4916166688697
 20
939.3398797062874
 30
0.0
 40
19.99998688493089
100
AcDbArc
 50
89.99996905711276
 51
170.1664312265186
  0
LINE
  5
31E
330
1F
100
AcDbEntity
  8
Lomakkeet
  6
Yhtenäinen
 62
     7
 48
60.0
370
    70
100
AcDbLine
 10
-1636.999999985472
 20
4619.999999999462
 30
0.0
 11
-1636.999999985472
 21
-1079.999999999978
 31
0.0
  0
LINE
  5
31F
330
1F
100
AcDbEntity
  8
Lomakkeet
  6
Yhtenäinen
 62
     7
 48
60.0
370
    70
100
AcDbLine
 10
-1636.999999985472
 20
4499.999999999982
 30
0.0
 11
2287.000000016389
 21
4499.999999999982
 31
0.0
  0
LINE
  5
320
330
1F
100
AcDbEntity
  8
Lomakkeet
  6
Yhtenäinen
 62
     7
 48
60.0
370
    35
100
AcDbLine
 10
1183.000000015098
 20
4499.999999998163
 30
0.0
 11
1183.000000016391
 21
4619.999999997686
 31
0.0
  0
LINE
  5
321
330
1F
100
AcDbEntity
  8
Lomakkeet
  6
Yhtenäinen
 62
     7
 48
60.0
370
    35
100
AcDbLine
 10
-1416.999999983609
 20
4500.000000000018
 30
0.0
 11
-1416.999999983609
 21
4620.000000000018
 31
0.0
  0
LINE
  5
322
330
1F
100
AcDbEntity
  8
Lomakkeet
  6
Yhtenäinen
 62
     7
 48
60.0
370
    35
100
AcDbLine
 10
1707.000000016393
 20
4619.999999997694
 30
0.0
 11
1707.000000016393
 21
4499.999999998246
 31
0.0
  0
LINE
  5
323
330
1F
100
AcDbEntity
  8
Lomakkeet
  6
Yhtenäinen
 62
     7
 48
60.0
370
    35
100
AcDbLine
 10
1997.000000016393
 20
4500.000000000611
 30
0.0
 11
1997.000000016393
 21
4620.000000000073
 31
0.0
  0
LINE
  5
324
330
1F
100
AcDbEntity
  8
Lomakkeet
  6
Yhtenäinen
 62
     7
 48
60.0
370
    70
100
AcDbLine
 10
-1636.999999985472
 20
4619.999999999462
 30
0.0
 11
2287.000000016389
 21
4619.999999999462
 31
0.0
  0
LINE
  5
325
330
1F
100
AcDbEntity
  8
Lomakkeet
  6
Yhtenäinen
 62
     7
 48
60.0
370
    70
100
AcDbLine
 10
-1636.999999985472
 20
-1079.999999999978
 30
0.0
 11
2287.000000016396
 21
-1079.999999999978
 31
0.0
  0
LINE
  5
326
330
1F
100
AcDbEntity
  8
Lomakkeet
  6
Yhtenäinen
 62
     7
 48
60.0
370
    70
100
AcDbLine
 10
2287.000000016396
 20
-1080.000000000071
 30
0.0
 11
2287.000000016389
 21
4619.999999999371
 31
0.0
  0
LINE
  5
327
330
1F
100
AcDbEntity
  8
Lomakkeet
  6
Yhtenäinen
 62
     7
 48
60.0
370
    35
100
AcDbLine
 10
-1636.999999985552
 20
-840.0000000000728
 30
0.0
 11
-932.9999999855172
 21
-839.9999999999745
 31
0.0
  0
LINE
  5
328
330
1F
100
AcDbEntity
  8
Lomakkeet
  6
Yhtenäinen
 62
     7
 48
60.0
370
    70
100
AcDbLine
 10
822.6000000144813
 20
-839.9999999997235
 30
0.0
 11
2287.000000016404
 21
-840.0000000001692
 31
0.0
  0
LINE
  5
329
330
1F
100
AcDbEntity
  8
Lomakkeet
  6
Yhtenäinen
 62
     7
 48
60.0
370
    70
100
AcDbLine
 10
-532.5999999836586
 20
-240.0000000000909
 30
0.0
 11
-532.5999999836677
 21
-1080.000000000022
 31
0.0
  0
LINE
  5
32A
330
1F
100
AcDbEntity
  8
Lomakkeet
  6
Yhtenäinen
 62
     7
 48
60.0
370
    70
100
AcDbLine
 10
-932.9999999855245
 20
-1079.999999999876
 30
0.0
 11
-932.9999999855172
 21
-80.00000000008913
 31
0.0
  0
LINE
  5
32B
330
1F
100
AcDbEntity
  8
Lomakkeet
  6
Yhtenäinen
 62
     7
 48
60.0
370
    70
100
AcDbLine
 10
822.6000000144722
 20
-1079.999999999605
 30
0.0
 11
822.6000000144813
 21
-239.9999999997508
 31
0.0
  0
LINE
  5
32C
330
1F
100
AcDbEntity
  8
Lomakkeet
  6
Yhtenäinen
 62
     7
 48
60.0
370
    70
100
AcDbLine
 10
-1454.999999985519
 20
-1080.000000000047
 30
0.0
 11
-1454.999999985519
 21
-720.0000000000473
 31
0.0
  0
LINE
  5
32D
330
1F
100
AcDbEntity
  8
Lomakkeet
  6
Yhtenäinen
 62
     7
 48
60.0
370
    35
100
AcDbLine
 10
-1636.999999985534
 20
-960.0000000000728
 30
0.0
 11
-932.9999999855172
 21
-959.9999999999745
 31
0.0
  0
LINE
  5
32E
330
1F
100
AcDbEntity
  8
Lomakkeet
  6
Yhtenäinen
 62
     7
 48
60.0
370
    70
100
AcDbLine
 10
822.6000000144777
 20
-397.2000000001754
 30
0.0
 11
-537.3999999855223
 21
-397.200000000139
 31
0.0
  0
LINE
  5
32F
330
1F
100
AcDbEntity
  8
Lomakkeet
  6
Yhtenäinen
 62
     7
 48
60.0
370
    70
100
AcDbLine
 10
1552.600000014465
 20
-839.9999999999454
 30
0.0
 11
1552.600000014481
 21
-720.0000000001455
 31
0.0
  0
LINE
  5
330
330
1F
100
AcDbEntity
  8
Lomakkeet
  6
Yhtenäinen
 62
     7
 48
60.0
370
    70
100
AcDbLine
 10
-537.3999999855168
 20
-562.8000000000538
 30
0.0
 11
822.6000000144832
 21
-562.8000000000848
 31
0.0
  0
LINE
  5
331
330
1F
100
AcDbEntity
  8
Lomakkeet
  6
Yhtenäinen
 62
     7
 48
60.0
370
    70
100
AcDbLine
 10
-932.9999999855172
 20
-839.9999999999745
 30
0.0
 11
-532.5999999836658
 21
-839.9999999999745
 31
0.0
  0
LINE
  5
332
330
1F
100
AcDbEntity
  8
Lomakkeet
  6
Yhtenäinen
 62
     7
 48
60.0
370
    70
100
AcDbLine
 10
-932.9999999855208
 20
-479.9999999995143
 30
0.0
 11
-1636.999999985506
 21
-479.9999999995143
 31
0.0
  0
LINE
  5
333
330
1F
100
AcDbEntity
  8
Lomakkeet
  6
Yhtenäinen
 62
     7
 48
60.0
370
    70
100
AcDbLine
 10
-1636.999999985519
 20
-720.0000000000764
 30
0.0
 11
-932.9999999855172
 21
-720.0000000000873
 31
0.0
  0
LINE
  5
334
330
1F
100
AcDbEntity
  8
Lomakkeet
  6
Yhtenäinen
 62
     7
 48
60.0
370
    70
100
AcDbLine
 10
-532.599999983664
 20
-720.0000000001019
 30
0.0
 11
2287.000000016396
 21
-720.0000000001619
 31
0.0
  0
LINE
  5
335
330
1F
100
AcDbEntity
  8
Lomakkeet
  6
Yhtenäinen
 62
     7
 48
60.0
370
    70
100
AcDbLine
 10
-1637.000000016404
 20
-80.00000000007276
 30
0.0
 11
2287.000000016396
 21
-80.00000000016371
 31
0.0
  0
LINE
  5
336
330
1F
100
AcDbEntity
  8
Lomakkeet
  6
Yhtenäinen
 62
     7
 48
60.0
370
    70
100
AcDbLine
 10
-1636.999999985517
 20
-240.0000000001637
 30
0.0
 11
2287.0000000164
 21
-240.0000000001637
 31
0.0
  0
LINE
  5
337
330
1F
100
AcDbEntity
  8
Lomakkeet
  6
Yhtenäinen
 62
     7
 48
60.0
370
    70
100
AcDbLine
 10
2147.000000016356
 20
-80.00000000016371
 30
0.0
 11
2147.000000016324
 21
-240.0000000001637
 31
0.0
  0
LINE
  5
338
330
1F
100
AcDbEntity
  8
Lomakkeet
  6
Yhtenäinen
 62
     7
 48
60.0
370
    70
100
AcDbLine
 10
1707.00454227871
 20
-80.00000000015098
 30
0.0
 11
1707.00454227875
 21
-240.0000000001528
 31
0.0
  0
LINE
  5
339
330
1F
100
AcDbEntity
  8
Lomakkeet
  6
Yhtenäinen
 62
     7
 48
60.0
370
    70
100
AcDbLine
 10
47.00721920179603
 20
-80.00000000011278
 30
0.0
 11
47.00721920179603
 21
-240.0000000001073
 31
0.0
  0
LINE
  5
33A
330
1F
100
AcDbEntity
  8
Lomakkeet
  6
Yhtenäinen
 62
     7
 48
60.0
370
    70
100
AcDbLine
 10
-1496.993849271526
 20
-80.0000000000764
 30
0.0
 11
-1496.993849271588
 21
-240.0000000000728
 31
0.0
  0
LINE
  5
33B
330
1F
100
AcDbEntity
  8
Lomakkeet
  6
Yhtenäinen
 62
     7
 48
60.0
370
    70
100
AcDbLine
 10
457.0000000163509
 20
-79.80000000007203
 30
0.0
 11
457.0000000163509
 21
-240.0000000001164
 31
0.0
  0
LINE
  5
33C
330
1F
100
AcDbEntity
  8
Lomakkeet
  6
Yhtenäinen
 62
     7
 48
60.0
370
    70
100
AcDbLine
 10
1367.000000016351
 20
-79.80000000007203
 30
0.0
 11
1367.000000016351
 21
-240.0000000001437
 31
0.0
  0
CIRCLE
  5
33D
330
1F
100
AcDbEntity
  8
Lomakkeet
  6
Yhtenäinen
 62
     7
 48
60.0
370
    35
100
AcDbCircle
 10
-635.1999999836498
 20
-971.6000000000713
 30
0.0
 40
60.0
  0
CIRCLE
  5
33E
330
1F
100
AcDbEntity
  8
Lomakkeet
  6
Yhtenäinen
 62
     7
 48
60.0
370
    35
100
AcDbCircle
 10
-635.1999999836498
 20
-971.6000000000713
 30
0.0
 40
40.0
  0
LINE
  5
33F
330
1F
100
AcDbEntity
  8
Lomakkeet
  6
Pistekatko
 62
     7
 48
60.0
370
    35
100
AcDbLine
 10
-707.1999999836517
 20
-971.6000000000713
 30
0.0
 11
-563.1999999836517
 21
-971.6000000000713
 31
0.0
  0
LINE
  5
340
330
1F
100
AcDbEntity
  8
Lomakkeet
  6
Pistekatko
 62
     7
 48
60.0
370
    35
100
AcDbLine
 10
-635.1999999836498
 20
-1043.600000000073
 30
0.0
 11
-635.1999999836498
 21
-899.6000000000713
 31
0.0
  0
LINE
  5
341
330
1F
100
AcDbEntity
  8
Lomakkeet
  6
Yhtenäinen 2
 62
     7
 48
60.0
370
    35
100
AcDbLine
 10
-743.1999999836517
 20
-1031.600000000071
 30
0.0
 11
-743.1999999836517
 21
-911.6000000000713
 31
0.0
  0
LINE
  5
342
330
1F
100
AcDbEntity
  8
Lomakkeet
  6
Yhtenäinen 2
 62
     7
 48
60.0
370
    35
100
AcDbLine
 10
-892.7999999836502
 20
-1011.600000000069
 30
0.0
 11
-892.7999999836502
 21
-931.6000000000695
 31
0.0
  0
LINE
  5
343
330
1F
100
AcDbEntity
  8
Lomakkeet
  6
Yhtenäinen 2
 62
     7
 48
60.0
370
    35
100
AcDbLine
 10
-892.7999999836502
 20
-931.6000000000695
 30
0.0
 11
-743.1999999836517
 21
-911.6000000000713
 31
0.0
  0
LINE
  5
344
330
1F
100
AcDbEntity
  8
Lomakkeet
  6
Yhtenäinen 2
 62
     7
 48
60.0
370
    35
100
AcDbLine
 10
-892.7999999836502
 20
-1011.600000000069
 30
0.0
 11
-743.1999999836517
 21
-1031.600000000071
 31
0.0
  0
LINE
  5
345
330
1F
100
AcDbEntity
  8
Muotoviivat
  6
Yhtenäinen
 62
     7
 48
60.0
370
    50
100
AcDbLine
 10
-302.7109568686574
 20
-747.880000000052
 30
0.0
 11
522.2490431313418
 21
-747.880000000052
 31
0.0
  0
LWPOLYLINE
  5
346
330
1F
100
AcDbEntity
  8
Muotoviivat
  6
Yhtenäinen
 62
     7
 48
60.0
370
    50
100
AcDbPolyline
 90
        3
 70
     0
 43
0.0
 10
-82.91680867676223
 20
-964.8456068820615
 10
-104.3278856977959
 20
-963.9541136395492
 10
-211.7548062997939
 20
-959.4811777995383
  0
LWPOLYLINE
  5
347
330
1F
100
AcDbEntity
  8
Muotoviivat
  6
Yhtenäinen
 62
     7
 48
60.0
370
    50
100
AcDbPolyline
 90
        3
 70
     0
 43
0.0
 10
-162.3948710146924
 20
-817.2416260897244
 10
-204.0143998771946
 20
-908.1458189380719
 10
-220.7781984070225
 20
-944.7608315553698
  0
LINE
  5
348
330
1F
100
AcDbEntity
  8
Muotoviivat
  6
Yhtenäinen
 62
     7
 48
60.0
370
    50
100
AcDbLine
 10
-227.0307641433574
 20
-912.5889856066678
 30
0.0
 11
-244.9803024987741
 21
-961.6711686390354
 31
0.0
  0
LINE
  5
349
330
1F
100
AcDbEntity
  8
Muotoviivat
  6
Yhtenäinen
 62
     7
 48
60.0
370
    50
100
AcDbLine
 10
-113.715480282568
 20
-982.8379287819153
 30
0.0
 11
-229.9083760791582
 21
-983.1664224291599
 31
0.0
  0
LINE
  5
34A
330
1F
100
AcDbEntity
  8
Muotoviivat
  6
Yhtenäinen
 62
     7
 48
60.0
370
    50
100
AcDbLine
 10
-171.5810049833981
 20
-881.3367994878354
 30
0.0
 11
-135.5352973847093
 21
-947.1674812931797
 31
0.0
  0
LINE
  5
34B
330
1F
100
AcDbEntity
  8
Muotoviivat
  6
Yhtenäinen
 62
     7
 48
60.0
370
    50
100
AcDbLine
 10
-110.6165435225066
 20
-901.7456065217684
 30
0.0
 11
-128.3044572148247
 21
-946.7106680148809
 31
0.0
  0
LINE
  5
34C
330
1F
100
AcDbEntity
  8
Muotoviivat
  6
Yhtenäinen
 62
     7
 48
60.0
370
    50
100
AcDbLine
 10
-302.7109568686574
 20
-747.880000000052
 30
0.0
 11
-302.7109568686574
 21
-1057.400000000051
 31
0.0
  0
LINE
  5
34D
330
1F
100
AcDbEntity
  8
Muotoviivat
  6
Yhtenäinen
 62
     7
 48
60.0
370
    50
100
AcDbLine
 10
-104.084380657976
 20
-965.8946927267662
 30
0.0
 11
-104.3278856977959
 21
-963.9541136395492
 31
0.0
  0
LINE
  5
34E
330
1F
100
AcDbEntity
  8
Muotoviivat
  6
Yhtenäinen
 62
     7
 48
60.0
370
    50
100
AcDbLine
 10
-205.7005109911661
 20
-907.5474432214069
 30
0.0
 11
-204.0143998771946
 21
-908.1458189380719
 31
0.0
  0
LINE
  5
34F
330
1F
100
AcDbEntity
  8
Muotoviivat
  6
Yhtenäinen
 62
     7
 48
60.0
370
    50
100
AcDbLine
 10
-143.7504245335622
 20
-816.6992996825102
 30
0.0
 11
-116.2016568274739
 21
-868.6586711212094
 31
0.0
  0
LWPOLYLINE
  5
350
330
1F
100
AcDbEntity
  8
Muotoviivat
  6
Yhtenäinen
 62
     7
 48
60.0
370
    50
100
AcDbPolyline
 90
        3
 70
     0
 43
0.0
 10
130.6468833719773
 20
-834.4400000000496
 10
147.0551921545775
 20
-834.4400000000496
 10
155.3210153119799
 20
-834.4400000000496
  0
LINE
  5
351
330
1F
100
AcDbEntity
  8
Muotoviivat
  6
Yhtenäinen
 62
     7
 48
60.0
370
    50
100
AcDbLine
 10
436.354132169412
 20
-907.0000000000509
 30
0.0
 11
415.8345331639921
 21
-907.0000000000509
 31
0.0
  0
LINE
  5
352
330
1F
100
AcDbEntity
  8
Muotoviivat
  6
Yhtenäinen
 62
     7
 48
60.0
370
    50
100
AcDbLine
 10
49.43018800879327
 20
-834.4400000000496
 30
0.0
 11
92.65310019228491
 21
-834.4400000000496
 31
0.0
  0
LINE
  5
353
330
1F
100
AcDbEntity
  8
Muotoviivat
  6
Yhtenäinen
 62
     7
 48
60.0
370
    50
100
AcDbLine
 10
-11.54499167862741
 20
-907.0000000000509
 30
0.0
 11
-23.89439515962658
 21
-907.0000000000509
 31
0.0
  0
LINE
  5
354
330
1F
100
AcDbEntity
  8
Muotoviivat
  6
Yhtenäinen
 62
     7
 48
60.0
370
    50
100
AcDbLine
 10
-29.67095686865832
 20
-924.4400000000496
 30
0.0
 11
432.5690431313415
 21
-924.4400000000496
 31
0.0
  0
LINE
  5
355
330
1F
100
AcDbEntity
  8
Muotoviivat
  6
Yhtenäinen
 62
     7
 48
60.0
370
    50
100
AcDbLine
 10
-29.67095686865832
 20
-924.4400000000496
 30
0.0
 11
-29.67095686865832
 21
-932.04000000005
 31
0.0
  0
LINE
  5
356
330
1F
100
AcDbEntity
  8
Muotoviivat
  6
Yhtenäinen
 62
     7
 48
60.0
370
    50
100
AcDbLine
 10
-29.67095686865832
 20
-932.04000000005
 30
0.0
 11
432.5690431313415
 21
-932.04000000005
 31
0.0
  0
LINE
  5
357
330
1F
100
AcDbEntity
  8
Muotoviivat
  6
Yhtenäinen
 62
     7
 48
60.0
370
    50
100
AcDbLine
 10
432.5690431313415
 20
-932.04000000005
 30
0.0
 11
432.5690431313415
 21
-924.4400000000496
 31
0.0
  0
LINE
  5
358
330
1F
100
AcDbEntity
  8
Muotoviivat
  6
Yhtenäinen
 62
     7
 48
60.0
370
    50
100
AcDbLine
 10
-53.99606614455479
 20
-834.4400000000496
 30
0.0
 11
-23.89439515962658
 21
-907.0000000000509
 31
0.0
  0
LINE
  5
359
330
1F
100
AcDbEntity
  8
Muotoviivat
  6
Yhtenäinen
 62
     7
 48
60.0
370
    50
100
AcDbLine
 10
-11.54499167862741
 20
-907.0000000000509
 30
0.0
 11
17.39892272996076
 21
-834.4400000000496
 31
0.0
  0
LINE
  5
35A
330
1F
100
AcDbEntity
  8
Muotoviivat
  6
Yhtenäinen
 62
     7
 48
60.0
370
    50
100
AcDbLine
 10
-1.897020209098628
 20
-834.4400000000496
 30
0.0
 11
-17.9772959622569
 21
-874.7519216074161
 31
0.0
  0
LINE
  5
35B
330
1F
100
AcDbEntity
  8
Muotoviivat
  6
Yhtenäinen
 62
     7
 48
60.0
370
    50
100
AcDbLine
 10
-17.9772959622569
 20
-874.7519216074161
 30
0.0
 11
-34.7007827455418
 21
-834.4400000000496
 31
0.0
  0
LINE
  5
35C
330
1F
100
AcDbEntity
  8
Muotoviivat
  6
Yhtenäinen
 62
     7
 48
60.0
370
    50
100
AcDbLine
 10
49.43018800879327
 20
-834.4400000000496
 30
0.0
 11
49.43018800879327
 21
-907.0000000000509
 31
0.0
  0
LINE
  5
35D
330
1F
100
AcDbEntity
  8
Muotoviivat
  6
Yhtenäinen
 62
     7
 48
60.0
370
    50
100
AcDbLine
 10
92.65310019228491
 20
-907.0000000000509
 30
0.0
 11
92.65310019228491
 21
-892.9200000000492
 31
0.0
  0
LINE
  5
35E
330
1F
100
AcDbEntity
  8
Muotoviivat
  6
Yhtenäinen
 62
     7
 48
60.0
370
    50
100
AcDbLine
 10
92.65310019228491
 20
-847.1136031943443
 30
0.0
 11
66.80904313133942
 21
-847.1136031943443
 31
0.0
  0
LINE
  5
35F
330
1F
100
AcDbEntity
  8
Muotoviivat
  6
Yhtenäinen
 62
     7
 48
60.0
370
    50
100
AcDbLine
 10
66.80904313133942
 20
-847.1136031943443
 30
0.0
 11
66.80904313133942
 21
-862.5200000000514
 31
0.0
  0
LINE
  5
360
330
1F
100
AcDbEntity
  8
Muotoviivat
  6
Yhtenäinen
 62
     7
 48
60.0
370
    50
100
AcDbLine
 10
66.80904313133942
 20
-862.5200000000514
 30
0.0
 11
92.65310019228491
 21
-862.5200000000514
 31
0.0
  0
LINE
  5
361
330
1F
100
AcDbEntity
  8
Muotoviivat
  6
Yhtenäinen
 62
     7
 48
60.0
370
    50
100
AcDbLine
 10
92.65310019228491
 20
-875.28567988537
 30
0.0
 11
66.80904313133942
 21
-875.28567988537
 31
0.0
  0
LINE
  5
362
330
1F
100
AcDbEntity
  8
Muotoviivat
  6
Yhtenäinen
 62
     7
 48
60.0
370
    50
100
AcDbLine
 10
66.80904313133942
 20
-875.28567988537
 30
0.0
 11
66.80904313133942
 21
-892.9200000000492
 31
0.0
  0
LINE
  5
363
330
1F
100
AcDbEntity
  8
Muotoviivat
  6
Yhtenäinen
 62
     7
 48
60.0
370
    50
100
AcDbLine
 10
66.80904313133942
 20
-892.9200000000492
 30
0.0
 11
92.65310019228491
 21
-892.9200000000492
 31
0.0
  0
LINE
  5
364
330
1F
100
AcDbEntity
  8
Muotoviivat
  6
Yhtenäinen
 62
     7
 48
60.0
370
    50
100
AcDbLine
 10
210.8339678622251
 20
-834.4400000000496
 30
0.0
 11
210.8339678622251
 21
-848.920000000051
 31
0.0
  0
LINE
  5
365
330
1F
100
AcDbEntity
  8
Muotoviivat
  6
Yhtenäinen
 62
     7
 48
60.0
370
    50
100
AcDbLine
 10
210.8339678622251
 20
-848.920000000051
 30
0.0
 11
226.2490431313399
 21
-848.920000000051
 31
0.0
  0
LINE
  5
366
330
1F
100
AcDbEntity
  8
Muotoviivat
  6
Yhtenäinen
 62
     7
 48
60.0
370
    50
100
AcDbLine
 10
226.2490431313399
 20
-848.920000000051
 30
0.0
 11
226.2490431313399
 21
-907.0000000000509
 31
0.0
  0
LINE
  5
367
330
1F
100
AcDbEntity
  8
Muotoviivat
  6
Yhtenäinen
 62
     7
 48
60.0
370
    50
100
AcDbLine
 10
242.2973530038653
 20
-907.0000000000509
 30
0.0
 11
242.2973530038653
 21
-848.920000000051
 31
0.0
  0
LINE
  5
368
330
1F
100
AcDbEntity
  8
Muotoviivat
  6
Yhtenäinen
 62
     7
 48
60.0
370
    50
100
AcDbLine
 10
242.2973530038653
 20
-848.920000000051
 30
0.0
 11
257.5290431313406
 21
-848.920000000051
 31
0.0
  0
LINE
  5
369
330
1F
100
AcDbEntity
  8
Muotoviivat
  6
Yhtenäinen
 62
     7
 48
60.0
370
    50
100
AcDbLine
 10
257.5290431313406
 20
-848.920000000051
 30
0.0
 11
257.5290431313406
 21
-834.4400000000496
 31
0.0
  0
LINE
  5
36A
330
1F
100
AcDbEntity
  8
Muotoviivat
  6
Yhtenäinen
 62
     7
 48
60.0
370
    50
100
AcDbLine
 10
130.6468833719773
 20
-834.4400000000496
 30
0.0
 11
130.6468833719773
 21
-907.0000000000509
 31
0.0
  0
LINE
  5
36B
330
1F
100
AcDbEntity
  8
Muotoviivat
  6
Yhtenäinen
 62
     7
 48
60.0
370
    50
100
AcDbLine
 10
433.7654791068435
 20
-834.4400000000496
 30
0.0
 11
411.6716650630606
 21
-868.3314466727425
 31
0.0
  0
LINE
  5
36C
330
1F
100
AcDbEntity
  8
Muotoviivat
  6
Yhtenäinen
 62
     7
 48
60.0
370
    50
100
AcDbLine
 10
390.038465842892
 20
-834.4400000000496
 30
0.0
 11
401.1205758257129
 21
-851.8016826472267
 31
0.0
  0
LINE
  5
36D
330
1F
100
AcDbEntity
  8
Muotoviivat
  6
Yhtenäinen
 62
     7
 48
60.0
370
    50
100
AcDbLine
 10
369.5188668374722
 20
-834.4400000000496
 30
0.0
 11
390.7527008935267
 21
-867.7057850207275
 31
0.0
  0
LINE
  5
36E
330
1F
100
AcDbEntity
  8
Muotoviivat
  6
Yhtenäinen
 62
     7
 48
60.0
370
    50
100
AcDbLine
 10
412.438646476352
 20
-834.4400000000496
 30
0.0
 11
401.1205758257129
 21
-851.8016826472267
 31
0.0
  0
LINE
  5
36F
330
1F
100
AcDbEntity
  8
Muotoviivat
  6
Yhtenäinen
 62
     7
 48
60.0
370
    50
100
AcDbLine
 10
147.0551921545775
 20
-907.0000000000509
 30
0.0
 11
147.0551921545775
 21
-879.7862739960201
 31
0.0
  0
LINE
  5
370
330
1F
100
AcDbEntity
  8
Muotoviivat
  6
Yhtenäinen
 62
     7
 48
60.0
370
    50
100
AcDbLine
 10
390.7527008935267
 20
-867.7057850207275
 30
0.0
 11
365.1368253856454
 21
-907.0000000000509
 31
0.0
  0
LINE
  5
371
330
1F
100
AcDbEntity
  8
Muotoviivat
  6
Yhtenäinen
 62
     7
 48
60.0
370
    50
100
AcDbLine
 10
411.6716650630606
 20
-868.3314466727425
 30
0.0
 11
436.354132169412
 21
-907.0000000000509
 31
0.0
  0
LINE
  5
372
330
1F
100
AcDbEntity
  8
Muotoviivat
  6
Yhtenäinen
 62
     7
 48
60.0
370
    50
100
AcDbLine
 10
401.3037901308744
 20
-884.2355490462414
 30
0.0
 11
386.4636580161387
 21
-907.0000000000509
 31
0.0
  0
LINE
  5
373
330
1F
100
AcDbEntity
  8
Muotoviivat
  6
Yhtenäinen
 62
     7
 48
60.0
370
    50
100
AcDbLine
 10
401.3037901308744
 20
-884.2355490462414
 30
0.0
 11
415.8345331639921
 21
-907.0000000000509
 31
0.0
  0
LINE
  5
374
330
1F
100
AcDbEntity
  8
Muotoviivat
  6
Yhtenäinen
 62
     7
 48
60.0
370
    50
100
AcDbLine
 10
291.1535411120094
 20
-834.4400000000496
 30
0.0
 11
291.1535411120094
 21
-907.0000000000509
 31
0.0
  0
LINE
  5
375
330
1F
100
AcDbEntity
  8
Muotoviivat
  6
Yhtenäinen
 62
     7
 48
60.0
370
    50
100
AcDbLine
 10
334.3764532955011
 20
-907.0000000000509
 30
0.0
 11
334.3764532955011
 21
-892.9200000000492
 31
0.0
  0
LINE
  5
376
330
1F
100
AcDbEntity
  8
Muotoviivat
  6
Yhtenäinen
 62
     7
 48
60.0
370
    50
100
AcDbLine
 10
334.3764532955011
 20
-847.1136031943443
 30
0.0
 11
308.5323962345574
 21
-847.1136031943443
 31
0.0
  0
LINE
  5
377
330
1F
100
AcDbEntity
  8
Muotoviivat
  6
Yhtenäinen
 62
     7
 48
60.0
370
    50
100
AcDbLine
 10
308.5323962345574
 20
-847.1136031943443
 30
0.0
 11
308.5323962345574
 21
-862.5200000000514
 31
0.0
  0
LINE
  5
378
330
1F
100
AcDbEntity
  8
Muotoviivat
  6
Yhtenäinen
 62
     7
 48
60.0
370
    50
100
AcDbLine
 10
308.5323962345574
 20
-862.5200000000514
 30
0.0
 11
334.3764532955011
 21
-862.5200000000514
 31
0.0
  0
LINE
  5
379
330
1F
100
AcDbEntity
  8
Muotoviivat
  6
Yhtenäinen
 62
     7
 48
60.0
370
    50
100
AcDbLine
 10
334.3764532955011
 20
-875.28567988537
 30
0.0
 11
308.5323962345574
 21
-875.28567988537
 31
0.0
  0
LINE
  5
37A
330
1F
100
AcDbEntity
  8
Muotoviivat
  6
Yhtenäinen
 62
     7
 48
60.0
370
    50
100
AcDbLine
 10
308.5323962345574
 20
-875.28567988537
 30
0.0
 11
308.5323962345574
 21
-892.9200000000492
 31
0.0
  0
LINE
  5
37B
330
1F
100
AcDbEntity
  8
Muotoviivat
  6
Yhtenäinen
 62
     7
 48
60.0
370
    50
100
AcDbLine
 10
308.5323962345574
 20
-892.9200000000492
 30
0.0
 11
334.3764532955011
 21
-892.9200000000492
 31
0.0
  0
LINE
  5
37C
330
1F
100
AcDbEntity
  8
Muotoviivat
  6
Yhtenäinen
 62
     7
 48
60.0
370
    50
100
AcDbLine
 10
147.0551921545775
 20
-879.7862739960201
 30
0.0
 11
163.8450895135156
 21
-907.0000000000509
 31
0.0
  0
LINE
  5
37D
330
1F
100
AcDbEntity
  8
Muotoviivat
  6
Yhtenäinen
 62
     7
 48
60.0
370
    50
100
AcDbLine
 10
185.5956383648681
 20
-907.0000000000509
 30
0.0
 11
163.8450895135156
 21
-907.0000000000509
 31
0.0
  0
LINE
  5
37E
330
1F
100
AcDbEntity
  8
Muotoviivat
  6
Yhtenäinen
 62
     7
 48
60.0
370
    50
100
AcDbLine
 10
185.5956383648681
 20
-907.0000000000509
 30
0.0
 11
163.6354919066689
 21
-878.1980984448637
 31
0.0
  0
ARC
  5
37F
330
1F
100
AcDbEntity
  8
Muotoviivat
  6
Yhtenäinen
 62
     7
 48
60.0
370
    50
100
AcDbCircle
 10
149.9797780232511
 20
-857.4783641449121
 30
0.0
 40
10.99387571990256
100
AcDbArc
 50
254.5724565950999
 51
105.4275434049001
  0
LINE
  5
380
330
1F
100
AcDbEntity
  8
Muotoviivat
  6
Yhtenäinen
 62
     7
 48
60.0
370
    50
100
AcDbLine
 10
210.8339678622251
 20
-834.4400000000496
 30
0.0
 11
257.5290431313406
 21
-834.4400000000496
 31
0.0
  0
LINE
  5
381
330
1F
100
AcDbEntity
  8
Muotoviivat
  6
Yhtenäinen
 62
     7
 48
60.0
370
    50
100
AcDbLine
 10
147.0551921545775
 20
-868.0761045097934
 30
0.0
 11
147.0551921545775
 21
-846.8806237800309
 31
0.0
  0
ARC
  5
382
330
1F
100
AcDbEntity
  8
Muotoviivat
  6
Yhtenäinen
 62
     7
 48
60.0
370
    50
100
AcDbCircle
 10
151.1881037332769
 20
-857.8942606589826
 30
0.0
 40
23.81561045143476
100
AcDbArc
 50
301.5106264445645
 51
99.99358549895874
  0
LINE
  5
383
330
1F
100
AcDbEntity
  8
Muotoviivat
  6
Yhtenäinen
 62
     7
 48
60.0
370
    50
100
AcDbLine
 10
291.1535411120094
 20
-834.4400000000496
 30
0.0
 11
334.3764532955011
 21
-834.4400000000496
 31
0.0
  0
ARC
  5
384
330
1F
100
AcDbEntity
  8
Muotoviivat
  6
Yhtenäinen
 62
     7
 48
60.0
370
    50
100
AcDbCircle
 10
-229.9536101471767
 20
-967.1664863705664
 30
0.0
 40
15.99999999999919
100
AcDbArc
 50
159.9123444082617
 51
270.1619827900033
  0
LINE
  5
385
330
1F
100
AcDbEntity
  8
Muotoviivat
  6
Yhtenäinen
 62
     7
 48
60.0
370
    50
100
AcDbLine
 10
92.65310019228491
 20
-847.1136031943443
 30
0.0
 11
92.65310019228491
 21
-834.4400000000496
 31
0.0
  0
LINE
  5
386
330
1F
100
AcDbEntity
  8
Muotoviivat
  6
Yhtenäinen
 62
     7
 48
60.0
370
    50
100
AcDbLine
 10
92.65310019228491
 20
-907.0000000000509
 30
0.0
 11
49.43018800879327
 21
-907.0000000000509
 31
0.0
  0
LINE
  5
387
330
1F
100
AcDbEntity
  8
Muotoviivat
  6
Yhtenäinen
 62
     7
 48
60.0
370
    50
100
AcDbLine
 10
369.5188668374722
 20
-834.4400000000496
 30
0.0
 11
390.038465842892
 21
-834.4400000000496
 31
0.0
  0
ARC
  5
388
330
1F
100
AcDbEntity
  8
Muotoviivat
  6
Yhtenäinen
 62
     7
 48
60.0
370
    50
100
AcDbCircle
 10
-215.7607448796607
 20
-916.7104739053175
 30
0.0
 40
12.0
100
AcDbArc
 50
70.46098420517431
 51
159.9123444082617
  0
LINE
  5
389
330
1F
100
AcDbEntity
  8
Muotoviivat
  6
Yhtenäinen
 62
     7
 48
60.0
370
    50
100
AcDbLine
 10
-53.99606614455479
 20
-834.4400000000496
 30
0.0
 11
-34.7007827455418
 21
-834.4400000000496
 31
0.0
  0
LINE
  5
38A
330
1F
100
AcDbEntity
  8
Muotoviivat
  6
Yhtenäinen
 62
     7
 48
60.0
370
    50
100
AcDbLine
 10
242.2973530038653
 20
-907.0000000000509
 30
0.0
 11
226.2490431313399
 21
-907.0000000000509
 31
0.0
  0
LINE
  5
38B
330
1F
100
AcDbEntity
  8
Muotoviivat
  6
Yhtenäinen
 62
     7
 48
60.0
370
    50
100
AcDbLine
 10
386.4636580161387
 20
-907.0000000000509
 30
0.0
 11
365.1368253856454
 21
-907.0000000000509
 31
0.0
  0
LINE
  5
38C
330
1F
100
AcDbEntity
  8
Muotoviivat
  6
Yhtenäinen
 62
     7
 48
60.0
370
    50
100
AcDbLine
 10
334.3764532955011
 20
-907.0000000000509
 30
0.0
 11
291.1535411120094
 21
-907.0000000000509
 31
0.0
  0
LINE
  5
38D
330
1F
100
AcDbEntity
  8
Muotoviivat
  6
Yhtenäinen
 62
     7
 48
60.0
370
    50
100
AcDbLine
 10
412.438646476352
 20
-834.4400000000496
 30
0.0
 11
433.7654791068435
 21
-834.4400000000496
 31
0.0
  0
LINE
  5
38E
330
1F
100
AcDbEntity
  8
Muotoviivat
  6
Yhtenäinen
 62
     7
 48
60.0
370
    50
100
AcDbLine
 10
-1.897020209098628
 20
-834.4400000000496
 30
0.0
 11
17.39892272996076
 21
-834.4400000000496
 31
0.0
  0
LINE
  5
38F
330
1F
100
AcDbEntity
  8
Muotoviivat
  6
Yhtenäinen
 62
     7
 48
60.0
370
    50
100
AcDbLine
 10
92.65310019228491
 20
-875.28567988537
 30
0.0
 11
92.65310019228491
 21
-862.5200000000514
 31
0.0
  0
LINE
  5
390
330
1F
100
AcDbEntity
  8
Muotoviivat
  6
Yhtenäinen
 62
     7
 48
60.0
370
    50
100
AcDbLine
 10
147.0551921545775
 20
-907.0000000000509
 30
0.0
 11
130.6468833719773
 21
-907.0000000000509
 31
0.0
  0
LINE
  5
391
330
1F
100
AcDbEntity
  8
Muotoviivat
  6
Yhtenäinen
 62
     7
 48
60.0
370
    50
100
AcDbLine
 10
334.3764532955011
 20
-847.1136031943443
 30
0.0
 11
334.3764532955011
 21
-834.4400000000496
 31
0.0
  0
LINE
  5
392
330
1F
100
AcDbEntity
  8
Muotoviivat
  6
Yhtenäinen
 62
     7
 48
60.0
370
    50
100
AcDbLine
 10
334.3764532955011
 20
-875.28567988537
 30
0.0
 11
334.3764532955011
 21
-862.5200000000514
 31
0.0
  0
ARC
  5
393
330
1F
100
AcDbEntity
  8
Muotoviivat
  6
Yhtenäinen
 62
     7
 48
60.0
370
    50
100
AcDbCircle
 10
-104.6607744170233
 20
-904.0884284019357
 30
0.0
 40
6.399999999999232
100
AcDbArc
 50
27.93245679629499
 51
158.5268041061512
  0
ARC
  5
394
330
1F
100
AcDbEntity
  8
Muotoviivat
  6
Yhtenäinen
 62
     7
 48
60.0
370
    50
100
AcDbCircle
 10
-113.7448824267794
 20
-972.4379703438299
 30
0.0
 40
10.39999999999985
100
AcDbArc
 50
270.1619827900034
 51
7.152127796156435
  0
ARC
  5
395
330
1F
100
AcDbEntity
  8
Muotoviivat
  6
Yhtenäinen
 62
     7
 48
60.0
370
    50
100
AcDbCircle
 10
-82.48415863318223
 20
-954.4546101089036
 30
0.0
 40
10.3999999999994
100
AcDbArc
 50
267.6157521899731
 51
27.93245679629513
  0
ARC
  5
396
330
1F
100
AcDbEntity
  8
Muotoviivat
  6
Yhtenäinen
 62
     7
 48
60.0
370
    50
100
AcDbCircle
 10
-152.9388288638856
 20
-821.570975560735
 30
0.0
 40
10.39999999999926
100
AcDbArc
 50
27.93245679629507
 51
155.3998228814467
  0
ARC
  5
397
330
1F
100
AcDbEntity
  8
Muotoviivat
  6
Yhtenäinen
 62
     7
 48
60.0
370
    50
100
AcDbCircle
 10
-211.3221562562157
 20
-949.0901810263804
 30
0.0
 40
10.40000000000138
100
AcDbArc
 50
155.3998228814468
 51
267.6157521899731
  0
ARC
  5
398
330
1F
100
AcDbEntity
  8
Muotoviivat
  6
Yhtenäinen
 62
     7
 48
60.0
370
    50
100
AcDbCircle
 10
-168.0725205044382
 20
-879.4157225344316
 30
0.0
 40
4.000000000000083
100
AcDbArc
 50
86.70832169068512
 51
208.7029878696275
  0
ARC
  5
399
330
1F
100
AcDbEntity
  8
Muotoviivat
  6
Yhtenäinen
 62
     7
 48
60.0
370
    50
100
AcDbCircle
 10
-132.0268129057495
 20
-945.2464043397758
 30
0.0
 40
3.999999999999782
100
AcDbArc
 50
208.7029878696275
 51
338.5268041061511
  0
LINE
  5
39A
330
1F
100
AcDbEntity
  8
Muotoviivat
  6
Yhtenäinen
 62
     7
 48
60.0
370
    50
100
AcDbLine
 10
-99.00637175220982
 20
-901.0904740153383
 30
0.0
 11
-73.29575430285877
 21
-949.5829342306788
 31
0.0
  0
LINE
  5
39B
330
1F
100
AcDbEntity
  8
Muotoviivat
  6
Yhtenäinen
 62
     7
 48
60.0
370
    50
100
AcDbLine
 10
-122.223541260526
 20
-878.046066574916
 30
0.0
 11
-167.8428443992907
 21
-875.4223218674924
 31
0.0
  0
ARC
  5
39C
330
1F
100
AcDbEntity
  8
Muotoviivat
  6
Yhtenäinen
 62
     7
 48
60.0
370
    50
100
AcDbCircle
 10
-121.8560594922856
 20
-871.6566255078105
 30
0.0
 40
6.400000000000588
100
AcDbArc
 50
266.7083216906852
 51
27.93245679629501
  0
LINE
  5
39D
330
1F
100
AcDbEntity
  8
Muotoviivat
  6
Yhtenäinen
 62
     7
 48
60.0
370
    50
100
AcDbLine
 10
-302.7109568686574
 20
-1057.400000000051
 30
0.0
 11
522.2490431313418
 21
-1057.400000000051
 31
0.0
  0
LINE
  5
39E
330
1F
100
AcDbEntity
  8
Muotoviivat
  6
Yhtenäinen
 62
     7
 48
60.0
370
    50
100
AcDbLine
 10
522.2490431313418
 20
-1057.400000000051
 30
0.0
 11
522.2490431313418
 21
-747.880000000052
 31
0.0
  0
LINE
  5
39F
330
1F
100
AcDbEntity
  8
Muotoviivat
  6
Yhtenäinen
 62
     7
 48
60.0
370
    50
100
AcDbLine
 10
-205.7005109911661
 20
-907.5474432214069
 30
0.0
 11
-223.5689019582351
 21
-946.5750752670865
 31
0.0
  0
LINE
  5
3A0
330
1F
100
AcDbEntity
  8
Muotoviivat
  6
Yhtenäinen
 62
     7
 48
60.0
370
    50
100
AcDbLine
 10
-104.084380657976
 20
-965.8946927267662
 30
0.0
 11
-214.5455098510065
 21
-961.295421511255
 31
0.0
  0
LINE
  5
3A1
330
1F
100
AcDbEntity
  8
Muotoviivat
  6
Yhtenäinen
 62
     7
 48
60.0
370
    50
100
AcDbLine
 10
-104.084380657976
 20
-965.8946927267662
 30
0.0
 11
-103.4258040532841
 21
-971.1431261363396
 31
0.0
  0
LINE
  5
3A2
330
1F
100
AcDbEntity
  8
Muotoviivat
  6
Yhtenäinen
 62
     7
 48
60.0
370
    50
100
AcDbLine
 10
-205.7005109911661
 20
-907.5474432214069
 30
0.0
 11
-211.7473607513348
 21
-905.4015063203206
 31
0.0
  0
ARC
  5
3A3
330
1F
100
AcDbEntity
  8
Muotoviivat
  6
Yhtenäinen
 62
     7
 48
60.0
370
    50
100
AcDbCircle
 10
-214.1128598074265
 20
-950.9044247380971
 30
0.0
 40
10.40000000000138
100
AcDbArc
 50
155.3998228814467
 51
267.6157521899731
  0
TEXT
  5
3A4
330
1F
100
AcDbEntity
  8
Tekstit
 62
     7
370
    25
100
AcDbText
 10
-1607.665566825361
 20
4539.615500190653
 30
0.0
 40
44.0
  1
Merkki
 41
0.9
  7
Arial
 11
-1607.665566825361
 21
4526.595500190652
 31
0.0
100
AcDbText
 73
     1
  0
TEXT
  5
3A5
330
1F
100
AcDbEntity
  8
Tekstit
 62
     7
370
    25
100
AcDbText
 10
-637.5146661125655
 20
4539.681259050173
 30
0.0
 40
44.0
  1
Muutos
 41
0.9
  7
Arial
 11
-637.5146661125655
 21
4526.661259050173
 31
0.0
100
AcDbText
 73
     1
  0
TEXT
  5
3A6
330
1F
100
AcDbEntity
  8
Tekstit
 62
     7
370
    25
100
AcDbText
 10
1288.653222119046
 20
4539.02708649846
 30
0.0
 40
44.0
  1
Pvm
 41
0.9
  7
Arial
 11
1288.653222119046
 21
4526.00708649846
 31
0.0
100
AcDbText
 73
     1
  0
TEXT
  5
3A7
330
1F
100
AcDbEntity
  8
Tekstit
 62
     7
370
    25
100
AcDbText
 10
1765.72776098318
 20
4536.094486883097
 30
0.0
 40
44.0
  1
Muutt.
 41
0.9
  7
Arial
 11
1765.72776098318
 21
4523.074486883096
 31
0.0
100
AcDbText
 73
     1
  0
TEXT
  5
3A8
330
1F
100
AcDbEntity
  8
Tekstit
 62
     7
370
    25
100
AcDbText
 10
2058.104735235363
 20
4536.011650938508
 30
0.0
 40
44.0
  1
Hyv
 41
0.9
  7
Arial
 11
2058.104735235363
 21
4580.011650938508
 31
0.0
100
AcDbText
 73
     3
  0
TEXT
  5
3A9
330
1F
100
AcDbEntity
  8
Tekstit
 62
     7
370
    25
100
AcDbText
 10
-1621.837742071104
 20
-177.2920881145616
 30
0.0
 40
44.0
  1
Osa
 41
0.9
  7
Arial
 11
-1621.837742071104
 21
-190.3120881145616
 31
0.0
100
AcDbText
 73
     1
  0
TEXT
  5
3AA
330
1F
100
AcDbEntity
  8
Tekstit
 62
     7
370
    25
100
AcDbText
 10
-904.3005008045802
 20
-179.1970662064902
 30
0.0
 40
44.0
  1
Osan tai kokoonpanoryhmän kuvaus
 41
0.9
  7
Arial
 11
-904.3005008045802
 21
-192.2170662064902
 31
0.0
100
AcDbText
 73
     1
  0
TEXT
  5
3AB
330
1F
100
AcDbEntity
  8
Tekstit
 62
     7
370
    25
100
AcDbText
 10
2172.800000016392
 20
-179.0300000005351
 30
0.0
 40
44.0
  1
Kpl
 41
0.9
  7
Arial
 11
2172.800000016392
 21
-192.0500000005351
 31
0.0
100
AcDbText
 73
     1
  0
TEXT
  5
3AC
330
1F
100
AcDbEntity
  8
Tekstit
 62
     7
370
    25
100
AcDbText
 10
497.4000000163905
 20
-178.8300000005362
 30
0.0
 40
44.0
  1
Muoto, malli, lajimerkki
 41
0.9
  7
Arial
 11
497.4000000163905
 21
-191.8500000005362
 31
0.0
100
AcDbText
 73
     1
  0
TEXT
  5
3AD
330
1F
100
AcDbEntity
  8
Tekstit
 62
     7
370
    25
100
AcDbText
 10
1740.000000016391
 20
-179.8300000005362
 30
0.0
 40
44.0
  1
Laatu
 41
0.9
  7
Arial
 11
1740.000000016391
 21
-192.8500000005362
 31
0.0
100
AcDbText
 73
     1
  0
TEXT
  5
3AE
330
1F
100
AcDbEntity
  8
Tekstit
 62
     7
370
    25
100
AcDbText
 10
-1467.386405711986
 20
-137.9285925926812
 30
0.0
 40
44.0
  1
Piirustusnumero
 41
0.9
  7
Arial
 11
-1467.386405711986
 21
-150.9485925926812
 31
0.0
100
AcDbText
 73
     1
  0
TEXT
  5
3AF
330
1F
100
AcDbEntity
  8
Tekstit
 62
     7
370
    25
100
AcDbText
 10
-1467.386405711986
 20
-211.6285925926812
 30
0.0
 40
44.0
  1
Tavaratunnus
 41
0.9
  7
Arial
 11
-1467.386405711986
 21
-224.6485925926812
 31
0.0
100
AcDbText
 73
     1
  0
TEXT
  5
3B0
330
1F
100
AcDbEntity
  8
Tekstit
 62
     7
370
    25
100
AcDbText
 10
70.8314373064186
 20
-146.01390800595
 30
0.0
 40
44.0
  1
Standardi
 41
0.9
  7
Arial
 11
70.8314373064186
 21
-102.01390800595
 31
0.0
100
AcDbText
 73
     3
  0
TEXT
  5
3B1
330
1F
100
AcDbEntity
  8
Tekstit
 62
     7
370
    25
100
AcDbText
 10
70.8314373064186
 20
-219.71390800595
 30
0.0
 40
44.0
  1
tai luettelo
 41
0.9
  7
Arial
 11
70.8314373064186
 21
-175.71390800595
 31
0.0
100
AcDbText
 73
     3
  0
TEXT
  5
3B2
330
1F
100
AcDbEntity
  8
Tekstit
 62
     7
370
    25
100
AcDbText
 10
-1622.399999983609
 20
-800.8300000005363
 30
0.0
 40
44.0
  1
Suunn
 41
0.9
  7
Arial
 11
-1622.399999983609
 21
-813.8500000005363
 31
0.0
100
AcDbText
 73
     1
  0
TEXT
  5
3B3
330
1F
100
AcDbEntity
  8
Tekstit
 62
     7
370
    25
100
AcDbText
 10
-1621.799999983607
 20
-923.2300000005359
 30
0.0
 40
44.0
  1
Tark.
 41
0.9
  7
Arial
 11
-1621.799999983607
 21
-936.2500000005359
 31
0.0
100
AcDbText
 73
     1
  0
TEXT
  5
3B4
330
1F
100
AcDbEntity
  8
Tekstit
 62
     7
370
    25
100
AcDbText
 10
-1619.599999983609
 20
-1042.430000000537
 30
0.0
 40
44.0
  1
Hyv.
 41
0.9
  7
Arial
 11
-1619.599999983609
 21
-1055.450000000537
 31
0.0
100
AcDbText
 73
     1
  0
TEXT
  5
3B5
330
1F
100
AcDbEntity
  8
Tekstit
 62
     7
370
    25
100
AcDbText
 10
-1618.599999983608
 20
-312.6300000005373
 30
0.0
 40
44.0
  1
Yleistoleranssit
 41
0.9
  7
Arial
 11
-1618.599999983608
 21
-325.6500000005373
 31
0.0
100
AcDbText
 73
     1
  0
TEXT
  5
3B6
330
1F
100
AcDbEntity
  8
Tekstit
 62
     7
370
    25
100
AcDbText
 10
-914.5999999836095
 20
-311.030000000537
 30
0.0
 40
44.0
  1
Mittakaava
 41
0.9
  7
Arial
 11
-914.5999999836095
 21
-324.050000000537
 31
0.0
100
AcDbText
 73
     1
  0
TEXT
  5
3B7
330
1F
100
AcDbEntity
  8
Tekstit
 62
     7
370
    25
100
AcDbText
 10
-513.7999999836084
 20
-293.4300000005366
 30
0.0
 40
44.0
  1
Tuote
 41
0.9
  7
Arial
 11
-513.7999999836084
 21
-306.4500000005366
 31
0.0
100
AcDbText
 73
     1
  0
TEXT
  5
3B8
330
1F
100
AcDbEntity
  8
Tekstit
 62
     7
370
    25
100
AcDbText
 10
842.6000000163913
 20
-799.8300000005363
 30
0.0
 40
44.0
  1
Ent.
 41
0.9
  7
Arial
 11
842.6000000163913
 21
-812.8500000005363
 31
0.0
100
AcDbText
 73
     1
  0
TEXT
  5
3B9
330
1F
100
AcDbEntity
  8
Tekstit
 62
     7
370
    25
100
AcDbText
 10
-509.215560470062
 20
-456.9070403245548
 30
0.0
 40
44.0
  1
Liittyy
 41
0.9
  7
Arial
 11
-509.215560470062
 21
-469.9270403245548
 31
0.0
100
AcDbText
 73
     1
  0
TEXT
  5
3BA
330
1F
100
AcDbEntity
  8
Tekstit
 62
     7
370
    25
100
AcDbText
 10
1572.600000016391
 20
-800.030000000537
 30
0.0
 40
44.0
  1
Uusi
 41
0.9
  7
Arial
 11
1572.600000016391
 21
-813.050000000537
 31
0.0
100
AcDbText
 73
     1
  0
TEXT
  5
3BB
330
1F
100
AcDbEntity
  8
Tekstit
 62
     7
370
    25
100
AcDbText
 10
-1614.79999998361
 20
-551.8300000005381
 30
0.0
 40
44.0
  1
Massa
 41
0.9
  7
Arial
 11
-1614.79999998361
 21
-564.8500000005381
 31
0.0
100
AcDbText
 73
     1
  0
TEXT
  5
3BC
330
1F
100
AcDbEntity
  8
Tekstit
 62
     7
370
    25
100
AcDbText
 10
-1018.305639187584
 20
-662.3381183924394
 30
0.0
 40
44.0
  1
kg
 41
0.9
  7
Arial
 11
-1018.305639187584
 21
-618.3381183924394
 31
0.0
100
AcDbText
 73
     3
  0
TEXT
  5
3BD
330
1F
100
AcDbEntity
  8
Lomakkeet
 62
     7
370
    35
100
AcDbText
 10
-793.5249999836524
 20
-585.6954545455262
 30
0.0
 40
60.0
  1
1:20
 41
0.7000000000000001
  7
Arial
 11
-793.5249999836524
 21
-603.4500000000717
 31
0.0
100
AcDbText
 73
     1
  0
TEXT
  5
3BE
330
1F
100
AcDbEntity
  8
Lomakkeet
 62
     7
370
    50
100
AcDbText
 10
871.1584171114318
 20
-1004.250171232271
 30
0.0
 40
100.0
  1
Wilma_AL
 41
0.9
  7
Arial
 11
871.1584171114318
 21
-1033.84108032318
 31
0.0
100
AcDbText
 73
     1
  0
TEXT
  5
3BF
330
1F
100
AcDbEntity
  8
Lomakkeet
 62
     7
370
    25
100
AcDbText
 10
-1434.999999985519
 20
-815.2045454545928
 30
0.0
 40
50.0
  1
2020-02-27 JMS
 41
0.7000000000000001
  7
Arial
 11
-1434.999999985519
 21
-830.0000000000473
 31
0.0
100
AcDbText
 73
     1
  0
TEXT
  5
3C0
330
1F
100
AcDbEntity
  8
Lomakkeet
 62
     7
370
    25
100
AcDbText
 10
-1434.999999985519
 20
-935.2045454545928
 30
0.0
 40
50.0
  1
           
 41
0.7000000000000001
  7
Arial
 11
-1434.999999985519
 21
-950.0000000000473
 31
0.0
100
AcDbText
 73
     1
  0
TEXT
  5
3C1
330
1F
100
AcDbEntity
  8
Lomakkeet
 62
     7
370
    25
100
AcDbText
 10
-1434.999999985519
 20
-1055.204545454593
 30
0.0
 40
50.0
  1
           
 41
0.7000000000000001
  7
Arial
 11
-1434.999999985519
 21
-1070.000000000047
 31
0.0
100
AcDbText
 73
     1
  0
TEXT
  5
3C2
330
1F
100
AcDbEntity
  8
Tekstit
 62
     7
370
    35
100
AcDbText
 10
862.6000000163458
 20
-366.4954545455273
 30
0.0
 40
60.0
  1
Wilma alaliitosmalli
 41
0.7000000000000001
  7
Arial
 11
862.6000000163458
 21
-384.2500000000728
 31
0.0
100
AcDbText
 73
     1
  0
TEXT
  5
3C3
330
1F
100
AcDbEntity
  8
Tekstit
 62
     7
370
    35
100
AcDbText
 10
862.6000000163458
 20
-646.4954545455273
 30
0.0
 40
60.0
  1
LINNATULI OY
 41
0.7000000000000001
  7
Arial
 11
862.6000000163458
 21
-664.2500000000728
 31
0.0
100
AcDbText
 73
     1
  0
TEXT
  5
3C4
330
1F
100
AcDbEntity
  8
Lomakkeet
 62
     7
370
    25
100
AcDbText
 10
-508.2671206278046
 20
-361.422423453248
 30
0.0
 40
50.0
  1
                                  
 41
0.7000000000000001
  7
Arial
 11
-508.2671206278046
 21
-376.2178779987025
 31
0.0
100
AcDbText
 73
     1
  0
TEXT
  5
3C5
330
1F
100
AcDbEntity
  8
Lomakkeet
 62
     7
370
    25
100
AcDbText
 10
-504.9173761287057
 20
-530.9762609260047
 30
0.0
 40
50.0
  1
J60000_Wilma_upotettu_luukku
 41
0.7000000000000001
  7
Arial
 11
-504.9173761287057
 21
-545.7717154714592
 31
0.0
100
AcDbText
 73
     1
  0
TEXT
  5
3C6
330
1F
100
AcDbEntity
  8
Lomakkeet
 62
     7
370
    35
100
AcDbText
 10
-1309.243685677439
 20
-666.7567838416123
 30
0.0
 40
60.0
  1
       
 41
0.64
  7
Arial
 11
-1309.243685677439
 21
-684.5113292961578
 31
0.0
100
AcDbText
 73
     1
  0
TEXT
  5
3C7
330
1F
100
AcDbEntity
  8
Tekstit
 62
     7
370
    25
100
AcDbText
 10
1400.800000016392
 20
-177.0300000005369
 30
0.0
 40
44.0
  1
Määrä
 41
0.9
  7
Arial
 11
1400.800000016392
 21
-190.050000000537
 31
0.0
100
AcDbText
 73
     1
  0
TEXT
  5
3C8
330
1F
100
AcDbEntity
  8
Tekstit
 62
     7
370
    25
100
AcDbText
 10
-533.9356734419234
 20
-615.9537959796107
 30
0.0
 40
44.0
  1
 Projekti
 41
0.9
  7
Arial
 11
-533.9356734419234
 21
-571.9537959796107
 31
0.0
100
AcDbText
 73
     3
  0
TEXT
  5
3C9
330
1F
100
AcDbEntity
  8
Lomakkeet
 62
     7
370
    25
100
AcDbText
 10
-499.5999999836495
 20
-702.279545454619
 30
0.0
 40
50.0
  1
J Wilma
 41
0.7000000000000001
  7
Arial
 11
-499.5999999836495
 21
-717.0750000000735
 31
0.0
100
AcDbText
 73
     1
  0
TEXT
  5
3CA
330
1F
100
AcDbEntity
  8
Tekstit
 62
     7
370
    35
100
AcDbText
 10
-33.75095686866007
 20
-981.7227272727786
 30
0.0
 40
30.0
  1
S     Y     S     T     E     M     S
 41
0.9
  7
Arial
 11
-33.75095686866007
 21
-990.6000000000513
 31
0.0
100
AcDbText
 73
     1
  0
HATCH
  5
3CB
330
1F
100
AcDbEntity
  8
Kuvio
 62
     7
370
    25
100
AcDbHatch
 10
0.0
 20
0.0
 30
0.0
210
0.0
220
0.0
230
1.0
  2
SOLID
 70
     1
 71
     1
 91
       10
 92
        2
 72
     0
 73
     1
 93
        4
 10
-302.7109568686574
 20
-747.880000000052
 10
522.2490431313418
 20
-747.880000000052
 10
522.2490431313418
 20
-1057.400000000051
 10
-302.7109568686574
 20
-1057.400000000051
 97
        0
 92
        2
 72
     1
 73
     1
 93
       48
 10
-220.7781984070254
 20
-944.7608315553697
 42
0.0
 10
-220.7781984070253
 20
-944.7608315553696
 42
0.532918572428244
 10
-211.7548062997962
 20
-959.4811777995403
 42
0.0
 10
-211.7548062997957
 20
-959.4811777995403
 42
0.0
 10
-104.3278856977959
 20
-963.9541136395492
 42
0.0
 10
-82.91680867676223
 20
-964.8456068820615
 42
0.0
 10
-82.91680867676274
 20
-964.8456068820615
 42
0.2686898793677939
 10
-73.68625533760766
 20
-960.0005002630363
 42
0.0
 10
-73.68625533760782
 20
-960.0005002630365
 42
0.0
 10
-73.68625533760776
 20
-960.0005002630364
 42
0.2686898793677716
 10
-73.2957543028591
 20
-949.5829342306778
 42
0.0
 10
-73.29575430285905
 20
-949.5829342306778
 42
0.0
 10
-99.00637175220982
 20
-901.0904740153383
 42
0.0
 10
-99.00637175220966
 20
-901.0904740153386
 42
0.2928807773813907
 10
-105.0213365935426
 20
-897.6985931210498
 42
0.0
 10
-105.0213365935427
 20
-897.6985931210498
 42
0.0
 10
-105.0213365935426
 20
-897.6985931210498
 42
0.2928807773813007
 10
-110.6165435225042
 20
-901.7456065217689
 42
0.0
 10
-110.6165435225042
 20
-901.7456065217687
 42
0.0
 10
-128.3044572148247
 20
-946.7106680148809
 42
0.0
 10
-128.3044572148239
 20
-946.7106680148789
 42
-0.2910564378250089
 10
-131.7746129520724
 20
-949.2384458204425
 42
0.0
 10
-131.7746129520725
 20
-949.2384458204425
 42
0.0
 10
-131.7746129520723
 20
-949.2384458204425
 42
-0.2910564378249503
 10
-135.5352973847088
 20
-947.1674812931797
 42
0.0
 10
-135.5352973847089
 20
-947.1674812931797
 42
0.0
 10
-171.5810049833981
 20
-881.3367994878354
 42
0.0
 10
-171.581004983398
 20
-881.3367994878354
 42
-0.2726187903767806
 10
-171.4537787714793
 20
-877.2786468381664
 42
0.0
 10
-171.4537787714793
 20
-877.2786468381664
 42
0.0
 10
-171.4537787714793
 20
-877.2786468381664
 42
-0.2726187903768149
 10
-167.8428443992893
 20
-875.4223218674906
 42
0.0
 10
-167.8428443992895
 20
-875.4223218674906
 42
0.0
 10
-122.223541260526
 20
-878.046066574916
 42
0.0
 10
-122.2235412605244
 20
-878.046066574916
 42
0.2708136414819715
 10
-116.4691604313475
 20
-875.112246798877
 42
0.0
 10
-116.4691604313475
 20
-875.1122467988771
 42
0.0
 10
-116.4691604313474
 20
-875.1122467988769
 42
0.2708136414819176
 10
-116.2016568274705
 20
-868.6586711212096
 42
0.0
 10
-116.2016568274705
 20
-868.6586711212096
 42
0.0
 10
-143.7504245335622
 20
-816.6992996825102
 42
0.0
 10
-143.7504245335626
 20
-816.6992996825094
 42
0.2854882318999798
 10
-153.2412143525083
 20
-811.1753724990432
 42
0.0
 10
-153.241214352508
 20
-811.1753724990432
 42
0.0
 10
-153.2412143525083
 20
-811.1753724990432
 42
0.2854882318999581
 10
-162.3948710146933
 20
-817.2416260897251
 42
0.0
 10
-162.3948710146933
 20
-817.2416260897252
 42
0.0
 10
-204.0143998771946
 20
-908.1458189380719
 42
0.0
 97
        0
 92
        2
 72
     1
 73
     1
 93
       58
 10
-211.7473607513331
 20
-905.4015063203216
 42
0.0
 10
-211.7473607513326
 20
-905.4015063203218
 42
0.4114117155119322
 10
-227.0307641433581
 20
-912.5889856066699
 42
0.0
 10
-227.0307641433581
 20
-912.5889856066697
 42
0.0
 10
-244.9803024987741
 20
-961.6711686390354
 42
0.0
 10
-244.9803024987747
 20
-961.671168639037
 42
0.5219522661915781
 10
-229.90837607916
 20
-983.1664224291594
 42
0.0
 10
-229.9083760791597
 20
-983.1664224291594
 42
0.0
 10
-113.715480282568
 20
-982.8379287819153
 42
0.0
 10
-113.7154802825689
 20
-982.8379287819153
 42
0.450415428475844
 10
-103.4258040532845
 20
-971.1431261363414
 42
0.0
 10
-103.4258040532845
 20
-971.1431261363415
 42
0.0
 10
-104.084380657976
 20
-965.8946927267662
 42
0.0
 10
-104.3278856977959
 20
-963.9541136395492
 42
0.0
 10
-82.91680867676223
 20
-964.8456068820615
 42
0.0
 10
-82.91680867676274
 20
-964.8456068820615
 42
0.2686898793677939
 10
-73.68625533760766
 20
-960.0005002630363
 42
0.0
 10
-73.68625533760782
 20
-960.0005002630365
 42
0.0
 10
-73.68625533760776
 20
-960.0005002630364
 42
0.2686898793677716
 10
-73.2957543028591
 20
-949.5829342306778
 42
0.0
 10
-73.29575430285905
 20
-949.5829342306778
 42
0.0
 10
-99.00637175220982
 20
-901.0904740153383
 42
0.0
 10
-99.00637175220966
 20
-901.0904740153386
 42
0.2928807773813907
 10
-105.0213365935426
 20
-897.6985931210498
 42
0.0
 10
-105.0213365935427
 20
-897.6985931210498
 42
0.0
 10
-105.0213365935426
 20
-897.6985931210498
 42
0.2928807773813007
 10
-110.6165435225042
 20
-901.7456065217689
 42
0.0
 10
-110.6165435225042
 20
-901.7456065217687
 42
0.0
 10
-128.3044572148247
 20
-946.7106680148809
 42
0.0
 10
-128.3044572148239
 20
-946.7106680148789
 42
-0.2910564378250089
 10
-131.7746129520724
 20
-949.2384458204425
 42
0.0
 10
-131.7746129520725
 20
-949.2384458204425
 42
0.0
 10
-131.7746129520723
 20
-949.2384458204425
 42
-0.2910564378249503
 10
-135.5352973847088
 20
-947.1674812931797
 42
0.0
 10
-135.5352973847089
 20
-947.1674812931797
 42
0.0
 10
-171.5810049833981
 20
-881.3367994878354
 42
0.0
 10
-171.581004983398
 20
-881.3367994878354
 42
-0.2726187903767806
 10
-171.4537787714793
 20
-877.2786468381664
 42
0.0
 10
-171.4537787714793
 20
-877.2786468381664
 42
0.0
 10
-171.4537787714793
 20
-877.2786468381664
 42
-0.2726187903768149
 10
-167.8428443992893
 20
-875.4223218674906
 42
0.0
 10
-167.8428443992895
 20
-875.4223218674906
 42
0.0
 10
-122.223541260526
 20
-878.046066574916
 42
0.0
 10
-122.2235412605244
 20
-878.046066574916
 42
0.2708136414819715
 10
-116.4691604313475
 20
-875.112246798877
 42
0.0
 10
-116.4691604313475
 20
-875.1122467988771
 42
0.0
 10
-116.4691604313474
 20
-875.1122467988769
 42
0.2708136414819176
 10
-116.2016568274705
 20
-868.6586711212096
 42
0.0
 10
-116.2016568274705
 20
-868.6586711212096
 42
0.0
 10
-143.7504245335622
 20
-816.6992996825102
 42
0.0
 10
-143.7504245335626
 20
-816.6992996825094
 42
0.2854882318999798
 10
-153.2412143525083
 20
-811.1753724990432
 42
0.0
 10
-153.241214352508
 20
-811.1753724990432
 42
0.0
 10
-153.2412143525083
 20
-811.1753724990432
 42
0.2854882318999581
 10
-162.3948710146933
 20
-817.2416260897251
 42
0.0
 10
-162.3948710146933
 20
-817.2416260897252
 42
0.0
 10
-204.0143998771946
 20
-908.1458189380719
 42
0.0
 10
-205.7005109911661
 20
-907.5474432214069
 42
0.0
 97
        0
 92
        2
 72
     0
 73
     1
 93
        7
 10
-53.99606614455479
 20
-834.4400000000496
 10
-34.7007827455418
 20
-834.4400000000496
 10
-17.9772959622569
 20
-874.7519216074161
 10
-1.897020209098628
 20
-834.4400000000496
 10
17.39892272996076
 20
-834.4400000000496
 10
-11.54499167862741
 20
-907.0000000000509
 10
-23.89439515962658
 20
-907.0000000000509
 97
        0
 92
        2
 72
     0
 73
     1
 93
       12
 10
49.43018800879327
 20
-834.4400000000496
 10
92.65310019228491
 20
-834.4400000000496
 10
92.65310019228491
 20
-847.1136031943443
 10
66.80904313133942
 20
-847.1136031943443
 10
66.80904313133942
 20
-862.5200000000514
 10
92.65310019228491
 20
-862.5200000000514
 10
92.65310019228491
 20
-875.28567988537
 10
66.80904313133942
 20
-875.28567988537
 10
66.80904313133942
 20
-892.9200000000492
 10
92.65310019228491
 20
-892.9200000000492
 10
92.65310019228491
 20
-907.0000000000509
 10
49.43018800879327
 20
-907.0000000000509
 97
        0
 92
        2
 72
     1
 73
     1
 93
       13
 10
130.6468833719773
 20
-834.4400000000496
 42
0.0
 10
130.6468833719773
 20
-907.0000000000509
 42
0.0
 10
147.0551921545775
 20
-907.0000000000509
 42
0.0
 10
147.0551921545775
 20
-879.7862739960201
 42
0.0
 10
163.8450895135156
 20
-907.0000000000509
 42
0.0
 10
185.5956383648681
 20
-907.0000000000509
 42
0.0
 10
163.6354919066689
 20
-878.1980984448637
 42
0.0
 10
163.6354919066685
 20
-878.1980984448641
 42
0.3602266140080059
 10
173.4586094558107
 20
-849.4557847280412
 42
0.0
 10
173.4586094558109
 20
-849.4557847280416
 42
0.0
 10
173.4586094558107
 20
-849.4557847280412
 42
0.3602266140079918
 10
147.0551921545763
 20
-834.4400000000505
 42
0.0
 10
147.0551921545757
 20
-834.4400000000506
 42
0.0
 97
        0
 92
        2
 72
     0
 73
     1
 93
        8
 10
226.2490431313399
 20
-907.0000000000509
 10
226.2490431313399
 20
-848.920000000051
 10
210.8339678622251
 20
-848.920000000051
 10
210.8339678622251
 20
-834.4400000000496
 10
257.5290431313406
 20
-834.4400000000496
 10
257.5290431313406
 20
-848.920000000051
 10
242.2973530038653
 20
-848.920000000051
 10
242.2973530038653
 20
-907.0000000000509
 97
        0
 92
        2
 72
     0
 73
     1
 93
       12
 10
291.1535411120094
 20
-834.4400000000496
 10
334.3764532955011
 20
-834.4400000000496
 10
334.3764532955011
 20
-847.1136031943443
 10
308.5323962345574
 20
-847.1136031943443
 10
308.5323962345574
 20
-862.5200000000514
 10
334.3764532955011
 20
-862.5200000000514
 10
334.3764532955011
 20
-875.28567988537
 10
308.5323962345574
 20
-875.28567988537
 10
308.5323962345574
 20
-892.9200000000492
 10
334.3764532955011
 20
-892.9200000000492
 10
334.3764532955011
 20
-907.0000000000509
 10
291.1535411120094
 20
-907.0000000000509
 97
        0
 92
        2
 72
     0
 73
     1
 93
       12
 10
369.5188668374722
 20
-834.4400000000496
 10
390.038465842892
 20
-834.4400000000496
 10
401.1205758257129
 20
-851.8016826472267
 10
412.438646476352
 20
-834.4400000000496
 10
433.7654791068435
 20
-834.4400000000496
 10
411.6716650630606
 20
-868.3314466727425
 10
436.354132169412
 20
-907.0000000000509
 10
415.8345331639921
 20
-907.0000000000509
 10
401.3037901308744
 20
-884.2355490462414
 10
386.4636580161387
 20
-907.0000000000509
 10
365.1368253856454
 20
-907.0000000000509
 10
390.7527008935267
 20
-867.7057850207275
 97
        0
 92
        2
 72
     0
 73
     1
 93
        4
 10
432.5690431313415
 20
-924.4400000000496
 10
432.5690431313415
 20
-932.04000000005
 10
-29.67095686865832
 20
-932.04000000005
 10
-29.67095686865832
 20
-924.4400000000496
 97
        0
 75
     0
 76
     1
 98
        1
 10
0.0
 20
0.0
  0
HATCH
  5
3CC
330
1F
100
AcDbEntity
  8
Kuvio
 62
     1
420
 16711680
370
    25
100
AcDbHatch
 10
0.0
 20
0.0
 30
0.0
210
0.0
220
0.0
230
1.0
  2
SOLID
 70
     1
 71
     1
 91
        1
 92
        2
 72
     0
 73
     1
 93
        4
 10
432.5690431313415
 20
-932.04000000005
 10
-29.67095686865832
 20
-932.04000000005
 10
-29.67095686865832
 20
-924.4400000000496
 10
432.5690431313415
 20
-924.4400000000496
 97
        0
 75
     0
 76
     1
 98
        1
 10
0.0
 20
0.0
  0
HATCH
  5
3CD
330
1F
100
AcDbEntity
  8
Kuvio
 62
     7
370
    25
100
AcDbHatch
 10
0.0
 20
0.0
 30
0.0
210
0.0
220
0.0
230
1.0
  2
SOLID
 70
     1
 71
     1
 91
        1
 92
        2
 72
     1
 73
     1
 93
       11
 10
-223.5689019582351
 20
-946.5750752670865
 42
0.0
 10
-205.7005109911661
 20
-907.5474432214069
 42
0.0
 10
-204.0143998771946
 20
-908.1458189380719
 42
0.0
 10
-220.7781984070225
 20
-944.7608315553698
 42
0.0
 10
-220.7781984070222
 20
-944.7608315553691
 42
0.5329185724282973
 10
-211.7548062997962
 20
-959.4811777995403
 42
0.0
 10
-211.7548062997957
 20
-959.4811777995403
 42
0.0
 10
-104.3278856977959
 20
-963.9541136395492
 42
0.0
 10
-104.084380657976
 20
-965.8946927267662
 42
0.0
 10
-214.5455098510065
 20
-961.295421511255
 42
0.0
 10
-214.5455098510056
 20
-961.295421511255
 42
-0.5329185724283068
 97
        0
 75
     0
 76
     1
 98
        1
 10
0.0
 20
0.0
  0
HATCH
  5
3CE
330
1F
100
AcDbEntity
  8
Kuvio
 62
     7
370
    25
100
AcDbHatch
 10
0.0
 20
0.0
 30
0.0
210
0.0
220
0.0
230
1.0
  2
SOLID
 70
     1
 71
     1
 91
        1
 92
        2
 72
     1
 73
     1
 93
        7
 10
147.0551921545794
 20
-846.8806237800311
 42
0.0
 10
147.0551921545788
 20
-846.8806237800312
 42
-0.4954667521787736
 10
160.9736537431537
 20
-857.4783641449121
 42
0.0
 10
160.9736537431537
 20
-857.4783641449121
 42
0.0
 10
160.9736537431537
 20
-857.4783641449121
 42
-0.49546675217874
 10
147.0551921545799
 20
-868.0761045097934
 42
0.0
 10
147.0551921545794
 20
-868.0761045097931
 42
0.0
 97
        0
 75
     0
 76
     1
 98
        1
 10
0.0
 20
0.0
  0
ENDSEC
  0
SECTION
  2
OBJECTS
  0
DICTIONARY
  5
C
330
0
100
AcDbDictionary
281
     1
  3
ACAD_DETAILVIEWSTYLE
350
40A
  3
ACAD_GROUP
350
D
  3
ACAD_LAYOUT
350
1A
  3
ACAD_MATERIAL
350
43
  3
ACAD_MLEADERSTYLE
350
6B
  3
ACAD_MLINESTYLE
350
17
  3
ACAD_PLOTSETTINGS
350
19
  3
ACAD_PLOTSTYLENAME
350
E
  3
ACAD_SCALELIST
350
47
  3
ACAD_SECTIONVIEWSTYLE
350
40B
  3
ACAD_TABLESTYLE
350
69
  3
ACAD_VISUALSTYLE
350
2A
  3
ACDB_RECOMPOSE_DATA
350
407
  3
AcDbVariableDictionary
350
3CF
  0
SUN
  5
6D
330
29
100
AcDbSun
 90
        1
290
     0
 63
     7
421
 16777215
 40
1.0
291
     1
 91
  2455826
 92
 54000000
292
     0
 70
     2
 71
   256
280
     1
  0
DICTIONARY
  5
40A
102
{ACAD_REACTORS
330
C
102
}
330
C
100
AcDbDictionary
281
     1
  0
DICTIONARY
  5
D
102
{ACAD_REACTORS
330
C
102
}
330
C
100
AcDbDictionary
281
     1
  0
DICTIONARY
  5
1A
102
{ACAD_REACTORS
330
C
102
}
330
C
100
AcDbDictionary
281
     1
  3
Layout1
350
1E
  3
Layout2
350
26
  3
Model
350
22
  0
DICTIONARY
  5
43
102
{ACAD_REACTORS
330
C
102
}
330
C
100
AcDbDictionary
281
     1
  3
ByBlock
350
45
  3
ByLayer
350
44
  3
Global
350
46
  0
DICTIONARY
  5
6B
102
{ACAD_REACTORS
330
C
102
}
330
C
100
AcDbDictionary
281
     1
  3
Standard
350
6C
  0
DICTIONARY
  5
17
102
{ACAD_REACTORS
330
C
102
}
330
C
100
AcDbDictionary
281
     1
  3
Standard
350
18
  0
DICTIONARY
  5
19
102
{ACAD_REACTORS
330
C
102
}
330
C
100
AcDbDictionary
281
     1
  0
ACDBDICTIONARYWDFLT
  5
E
102
{ACAD_REACTORS
330
C
102
}
330
C
100
AcDbDictionary
281
     1
  3
Normal
350
F
100
AcDbDictionaryWithDefault
340
F
  0
DICTIONARY
  5
47
102
{ACAD_REACTORS
330
C
102
}
330
C
100
AcDbDictionary
281
     1
  3
A0
350
48
  3
A1
350
49
  3
A2
350
4A
  3
A3
350
4B
  3
A4
350
4C
  3
A5
350
4D
  3
A6
350
4E
  3
A7
350
4F
  3
A8
350
50
  3
A9
350
51
  3
B0
350
52
  3
B1
350
53
  3
B2
350
54
  3
B3
350
55
  3
B4
350
56
  3
B5
350
57
  3
B6
350
58
  3
B7
350
59
  3
B8
350
5A
  3
B9
350
5B
  3
C0
350
5C
  3
C1
350
5D
  3
C2
350
5E
  3
C3
350
5F
  3
C4
350
60
  3
C5
350
61
  3
C6
350
62
  3
C7
350
63
  3
C8
350
64
  3
C9
350
65
  3
D0
350
66
  3
D1
350
67
  3
D2
350
68
  0
DICTIONARY
  5
40B
102
{ACAD_REACTORS
330
C
102
}
330
C
100
AcDbDictionary
281
     1
  0
DICTIONARY
  5
69
102
{ACAD_REACTORS
330
C
102
}
330
C
100
AcDbDictionary
281
     1
  3
Standard
350
6A
  0
DICTIONARY
  5
2A
102
{ACAD_REACTORS
330
C
102
}
330
C
100
AcDbDictionary
281
     1
  3
2dWireframe
350
2F
  3
Basic
350
32
  3
Brighten
350
36
  3
ColorChange
350
3A
  3
Conceptual
350
34
  3
Dim
350
35
  3
EdgeColorOff
350
3D
  3
Facepattern
350
39
  3
Flat
350
2B
  3
FlatWithEdges
350
2C
  3
Gouraud
350
2D
  3
GouraudWithEdges
350
2E
  3
Hidden
350
31
  3
JitterOff
350
3B
  3
Linepattern
350
38
  3
OverhangOff
350
3C
  3
Realistic
350
33
  3
Shaded
350
42
  3
Shaded with edges
350
41
  3
Shades of Gray
350
3E
  3
Sketchy
350
3F
  3
Thicken
350
37
  3
Wireframe
350
30
  3
X-Ray
350
40
  0
XRECORD
  5
407
102
{ACAD_REACTORS
330
C
102
}
330
C
100
AcDbXrecord
280
     1
 90
        1
330
6A
  0
DICTIONARY
  5
3CF
102
{ACAD_REACTORS
330
C
102
}
330
C
100
AcDbDictionary
281
     1
  3
CANNOSCALE
350
3D0
  3
CMLEADERSTYLE
350
409
  3
CTABLESTYLE
350
408
  3
XCLIPFRAME
350
3D1
  0
LAYOUT
  5
1E
102
{ACAD_REACTORS
330
1A
102
}
330
1A
100
AcDbPlotSettings
  1

  2
none_device
  4

  6

 40
0.0
 41
0.0
 42
0.0
 43
0.0
 44
0.0
 45
0.0
 46
0.0
 47
0.0
 48
0.0
 49
0.0
140
0.0
141
0.0
142
1.0
143
1.0
 70
   688
 72
     0
 73
     0
 74
     5
  7

 75
    16
 76
     0
 77
     2
 78
   300
147
1.0
148
0.0
149
0.0
100
AcDbLayout
  1
Layout1
 70
     1
 71
     1
 10
0.0
 20
0.0
 11
12.0
 21
9.0
 12
0.0
 22
0.0
 32
0.0
 14
1.000000000000000E+20
 24
1.000000000000000E+20
 34
1.000000000000000E+20
 15
-1.000000000000000E+20
 25
-1.000000000000000E+20
 35
-1.000000000000000E+20
146
0.0
 13
0.0
 23
0.0
 33
0.0
 16
1.0
 26
0.0
 36
0.0
 17
0.0
 27
1.0
 37
0.0
 76
     0
330
1B
  0
LAYOUT
  5
26
102
{ACAD_REACTORS
330
1A
102
}
330
1A
100
AcDbPlotSettings
  1

  2
none_device
  4

  6

 40
0.0
 41
0.0
 42
0.0
 43
0.0
 44
0.0
 45
0.0
 46
0.0
 47
0.0
 48
0.0
 49
0.0
140
0.0
141
0.0
142
1.0
143
1.0
 70
   688
 72
     0
 73
     0
 74
     5
  7

 75
    16
 76
     0
 77
     2
 78
   300
147
1.0
148
0.0
149
0.0
100
AcDbLayout
  1
Layout2
 70
     1
 71
     2
 10
0.0
 20
0.0
 11
0.0
 21
0.0
 12
0.0
 22
0.0
 32
0.0
 14
0.0
 24
0.0
 34
0.0
 15
0.0
 25
0.0
 35
0.0
146
0.0
 13
0.0
 23
0.0
 33
0.0
 16
1.0
 26
0.0
 36
0.0
 17
0.0
 27
1.0
 37
0.0
 76
     0
330
23
  0
LAYOUT
  5
22
102
{ACAD_REACTORS
330
1A
102
}
330
1A
100
AcDbPlotSettings
  1

  2
none_device
  4
Letter_(8.50_x_11.00_Inches)
  6

 40
6.35
 41
6.35
 42
6.35000508
 43
6.35000508
 44
215.9
 45
279.4
 46
0.0
 47
0.0
 48
0.0
 49
0.0
140
0.0
141
0.0
142
1.0
143
1.0
 70
  1712
 72
     0
 73
     0
 74
     0
  7

 75
     0
 76
     0
 77
     2
 78
   300
147
1.0
148
0.0
149
0.0
100
AcDbLayout
  1
Model
 70
     1
 71
     0
 10
-1637.500000016404
 20
-1080.500000000071
 11
2287.500000016404
 21
4620.500000000073
 12
0.0
 22
0.0
 32
0.0
 14
-1637.500000016404
 24
-1080.500000000071
 34
0.0
 15
2287.500000016404
 25
4620.500000000073
 35
0.0
146
0.0
 13
0.0
 23
0.0
 33
0.0
 16
1.0
 26
0.0
 36
0.0
 17
0.0
 27
1.0
 37
0.0
 76
     0
330
1F
331
29
  0
MATERIAL
  5
45
102
{ACAD_REACTORS
330
43
102
}
330
43
100
AcDbMaterial
  1
ByBlock
 72
     1
 94
      127
  0
MATERIAL
  5
44
102
{ACAD_REACTORS
330
43
102
}
330
43
100
AcDbMaterial
  1
ByLayer
 72
     1
 94
      127
  0
MATERIAL
  5
46
102
{ACAD_REACTORS
330
43
102
}
330
43
100
AcDbMaterial
  1
Global
 72
     1
 94
      127
  0
MLEADERSTYLE
  5
6C
102
{ACAD_REACTORS
330
6B
102
}
102
{ACAD_XDICTIONARY
360
405
102
}
330
6B
100
AcDbMLeaderStyle
170
     2
171
     1
172
     0
 90
        2
 40
0.0
 41
0.0
173
     1
 91
-1056964608
340
14
 92
       -2
290
     1
 42
0.09
291
     1
 43
0.36
  3
Standard
341
0
 44
0.18
300

342
11
174
     1
178
     6
175
     1
176
     0
 93
-1056964608
 45
0.18
292
     0
297
     0
 46
0.18
343
0
 94
-1056964608
 47
1.0
 49
1.0
140
1.0
293
     1
141
0.0
294
     1
177
     0
142
1.0
295
     0
296
     0
143
0.125
1001
ACAD_MLEADERVER
1070
     2
  0
MLINESTYLE
  5
18
102
{ACAD_REACTORS
330
17
102
}
330
17
100
AcDbMlineStyle
  2
Standard
 70
     0
  3

 62
   256
 51
90.0
 52
90.0
 71
     2
 49
0.5
 62
   256
  6
BYLAYER
 49
-0.5
 62
   256
  6
BYLAYER
  0
ACDBPLACEHOLDER
  5
F
102
{ACAD_REACTORS
330
E
102
}
330
E
  0
SCALE
  5
48
102
{ACAD_REACTORS
330
47
102
}
330
47
100
AcDbScale
 70
     0
300
1:1
140
1.0
141
1.0
290
     1
  0
SCALE
  5
49
102
{ACAD_REACTORS
330
47
102
}
330
47
100
AcDbScale
 70
     0
300
1:2
140
1.0
141
2.0
290
     0
  0
SCALE
  5
4A
102
{ACAD_REACTORS
330
47
102
}
330
47
100
AcDbScale
 70
     0
300
1:4
140
1.0
141
4.0
290
     0
  0
SCALE
  5
4B
102
{ACAD_REACTORS
330
47
102
}
330
47
100
AcDbScale
 70
     0
300
1:5
140
1.0
141
5.0
290
     0
  0
SCALE
  5
4C
102
{ACAD_REACTORS
330
47
102
}
330
47
100
AcDbScale
 70
     0
300
1:8
140
1.0
141
8.0
290
     0
  0
SCALE
  5
4D
102
{ACAD_REACTORS
330
47
102
}
330
47
100
AcDbScale
 70
     0
300
1:10
140
1.0
141
10.0
290
     0
  0
SCALE
  5
4E
102
{ACAD_REACTORS
330
47
102
}
330
47
100
AcDbScale
 70
     0
300
1:16
140
1.0
141
16.0
290
     0
  0
SCALE
  5
4F
102
{ACAD_REACTORS
330
47
102
}
330
47
100
AcDbScale
 70
     0
300
1:20
140
1.0
141
20.0
290
     0
  0
SCALE
  5
50
102
{ACAD_REACTORS
330
47
102
}
330
47
100
AcDbScale
 70
     0
300
1:30
140
1.0
141
30.0
290
     0
  0
SCALE
  5
51
102
{ACAD_REACTORS
330
47
102
}
330
47
100
AcDbScale
 70
     0
300
1:40
140
1.0
141
40.0
290
     0
  0
SCALE
  5
52
102
{ACAD_REACTORS
330
47
102
}
330
47
100
AcDbScale
 70
     0
300
1:50
140
1.0
141
50.0
290
     0
  0
SCALE
  5
53
102
{ACAD_REACTORS
330
47
102
}
330
47
100
AcDbScale
 70
     0
300
1:100
140
1.0
141
100.0
290
     0
  0
SCALE
  5
54
102
{ACAD_REACTORS
330
47
102
}
330
47
100
AcDbScale
 70
     0
300
2:1
140
2.0
141
1.0
290
     0
  0
SCALE
  5
55
102
{ACAD_REACTORS
330
47
102
}
330
47
100
AcDbScale
 70
     0
300
4:1
140
4.0
141
1.0
290
     0
  0
SCALE
  5
56
102
{ACAD_REACTORS
330
47
102
}
330
47
100
AcDbScale
 70
     0
300
8:1
140
8.0
141
1.0
290
     0
  0
SCALE
  5
57
102
{ACAD_REACTORS
330
47
102
}
330
47
100
AcDbScale
 70
     0
300
10:1
140
10.0
141
1.0
290
     0
  0
SCALE
  5
58
102
{ACAD_REACTORS
330
47
102
}
330
47
100
AcDbScale
 70
     0
300
100:1
140
100.0
141
1.0
290
     0
  0
SCALE
  5
59
102
{ACAD_REACTORS
330
47
102
}
330
47
100
AcDbScale
 70
     0
300
1/128" = 1'-0"
140
0.0078125
141
12.0
290
     0
  0
SCALE
  5
5A
102
{ACAD_REACTORS
330
47
102
}
330
47
100
AcDbScale
 70
     0
300
1/64" = 1'-0"
140
0.015625
141
12.0
290
     0
  0
SCALE
  5
5B
102
{ACAD_REACTORS
330
47
102
}
330
47
100
AcDbScale
 70
     0
300
1/32" = 1'-0"
140
0.03125
141
12.0
290
     0
  0
SCALE
  5
5C
102
{ACAD_REACTORS
330
47
102
}
330
47
100
AcDbScale
 70
     0
300
1/16" = 1'-0"
140
0.0625
141
12.0
290
     0
  0
SCALE
  5
5D
102
{ACAD_REACTORS
330
47
102
}
330
47
100
AcDbScale
 70
     0
300
3/32" = 1'-0"
140
0.09375
141
12.0
290
     0
  0
SCALE
  5
5E
102
{ACAD_REACTORS
330
47
102
}
330
47
100
AcDbScale
 70
     0
300
1/8" = 1'-0"
140
0.125
141
12.0
290
     0
  0
SCALE
  5
5F
102
{ACAD_REACTORS
330
47
102
}
330
47
100
AcDbScale
 70
     0
300
3/16" = 1'-0"
140
0.1875
141
12.0
290
     0
  0
SCALE
  5
60
102
{ACAD_REACTORS
330
47
102
}
330
47
100
AcDbScale
 70
     0
300
1/4" = 1'-0"
140
0.25
141
12.0
290
     0
  0
SCALE
  5
61
102
{ACAD_REACTORS
330
47
102
}
330
47
100
AcDbScale
 70
     0
300
3/8" = 1'-0"
140
0.375
141
12.0
290
     0
  0
SCALE
  5
62
102
{ACAD_REACTORS
330
47
102
}
330
47
100
AcDbScale
 70
     0
300
1/2" = 1'-0"
140
0.5
141
12.0
290
     0
  0
SCALE
  5
63
102
{ACAD_REACTORS
330
47
102
}
330
47
100
AcDbScale
 70
     0
300
3/4" = 1'-0"
140
0.75
141
12.0
290
     0
  0
SCALE
  5
64
102
{ACAD_REACTORS
330
47
102
}
330
47
100
AcDbScale
 70
     0
300
1" = 1'-0"
140
1.0
141
12.0
290
     0
  0
SCALE
  5
65
102
{ACAD_REACTORS
330
47
102
}
330
47
100
AcDbScale
 70
     0
300
1-1/2" = 1'-0"
140
1.5
141
12.0
290
     0
  0
SCALE
  5
66
102
{ACAD_REACTORS
330
47
102
}
330
47
100
AcDbScale
 70
     0
300
3" = 1'-0"
140
3.0
141
12.0
290
     0
  0
SCALE
  5
67
102
{ACAD_REACTORS
330
47
102
}
330
47
100
AcDbScale
 70
     0
300
6" = 1'-0"
140
6.0
141
12.0
290
     0
  0
SCALE
  5
68
102
{ACAD_REACTORS
330
47
102
}
330
47
100
AcDbScale
 70
     0
300
1'-0" = 1'-0"
140
12.0
141
12.0
290
     0
  0
TABLESTYLE
  5
6A
102
{ACAD_REACTORS
330
69
102
}
102
{ACAD_XDICTIONARY
360
402
102
}
330
69
100
AcDbTableStyle
  3
Standard
 70
     0
 71
     0
 40
0.06
 41
0.06
280
     0
281
     0
  7
Standard
140
0.18
170
     2
 62
     0
 63
   257
283
     0
 90
        4
 91
        0
  1

274
    -2
284
     1
 64
     0
275
    -2
285
     1
 65
     0
276
    -2
286
     1
 66
     0
277
    -2
287
     1
 67
     0
278
    -2
288
     1
 68
     0
279
    -2
289
     1
 69
     0
  7
Standard
140
0.25
170
     5
 62
     0
 63
   257
283
     0
 90
        4
 91
        0
  1

274
    -2
284
     1
 64
     0
275
    -2
285
     1
 65
     0
276
    -2
286
     1
 66
     0
277
    -2
287
     1
 67
     0
278
    -2
288
     1
 68
     0
279
    -2
289
     1
 69
     0
  7
Standard
140
0.18
170
     5
 62
     0
 63
   257
283
     0
 90
        4
 91
        0
  1

274
    -2
284
     1
 64
     0
275
    -2
285
     1
 65
     0
276
    -2
286
     1
 66
     0
277
    -2
287
     1
 67
     0
278
    -2
288
     1
 68
     0
279
    -2
289
     1
 69
     0
  0
VISUALSTYLE
  5
2F
102
{ACAD_REACTORS
330
2A
102
}
102
{ACAD_XDICTIONARY
360
3DA
102
}
330
2A
100
AcDbVisualStyle
  2
2dWireframe
 70
     4
 71
     0
 72
     2
 73
     0
 90
        0
 40
0.6
 41
30.0
 62
     5
 63
     7
421
 16777215
 74
     1
 91
        4
 64
     7
 65
   257
 75
     1
175
     1
 42
1.0
 92
        0
 66
   257
 43
1.0
 76
     1
 77
     6
 78
     2
 67
     7
 79
     5
170
     0
171
     0
290
     0
174
     0
 93
        1
 44
0.0
173
     0
291
     0
 45
0.0
  0
VISUALSTYLE
  5
32
102
{ACAD_REACTORS
330
2A
102
}
102
{ACAD_XDICTIONARY
360
3E0
102
}
330
2A
100
AcDbVisualStyle
  2
Basic
 70
     7
 71
     1
 72
     0
 73
     1
 90
        0
 40
0.6
 41
30.0
 62
     5
 63
     7
421
 16777215
 74
     0
 91
        4
 64
     7
 65
   257
 75
     1
175
     1
 42
1.0
 92
        8
 66
     7
 43
1.0
 76
     1
 77
     6
 78
     2
 67
     7
 79
     5
170
     0
171
     0
290
     0
174
     0
 93
        1
 44
0.0
173
     0
291
     1
 45
0.0
  0
VISUALSTYLE
  5
36
102
{ACAD_REACTORS
330
2A
102
}
102
{ACAD_XDICTIONARY
360
3E8
102
}
330
2A
100
AcDbVisualStyle
  2
Brighten
 70
    12
 71
     2
 72
     2
 73
     0
 90
        0
 40
0.6
 41
30.0
 62
     5
 63
     7
421
 16777215
 74
     1
 91
        4
 64
     7
 65
   257
 75
     1
175
     1
 42
1.0
 92
        8
 66
     7
 43
1.0
 76
     1
 77
     6
 78
     2
 67
     7
 79
     5
170
     0
171
     0
290
     0
174
     0
 93
        1
 44
50.0
173
     0
291
     1
 45
0.0
  0
VISUALSTYLE
  5
3A
102
{ACAD_REACTORS
330
2A
102
}
102
{ACAD_XDICTIONARY
360
3F0
102
}
330
2A
100
AcDbVisualStyle
  2
ColorChange
 70
    16
 71
     2
 72
     2
 73
     3
 90
        0
 40
0.6
 41
30.0
 62
     5
 63
     8
421
  8421504
 74
     1
 91
        4
 64
     7
 65
   257
 75
     1
175
     1
 42
1.0
 92
        8
 66
     8
424
  8421504
 43
1.0
 76
     1
 77
     6
 78
     2
 67
     7
 79
     5
170
     0
171
     0
290
     0
174
     0
 93
        1
 44
0.0
173
     0
291
     1
 45
0.0
  0
VISUALSTYLE
  5
34
102
{ACAD_REACTORS
330
2A
102
}
102
{ACAD_XDICTIONARY
360
3E4
102
}
330
2A
100
AcDbVisualStyle
  2
Conceptual
 70
     9
 71
     3
 72
     2
 73
     0
 90
        0
 40
0.6
 41
30.0
 62
     5
 63
     7
421
 16777215
 74
     2
 91
        2
 64
     7
 65
   257
 75
     1
175
     1
 42
179.0
 92
        8
 66
     7
 43
1.0
 76
     1
 77
     6
 78
     2
 67
     7
 79
     3
170
     0
171
     0
290
     0
174
     0
 93
        1
 44
0.0
173
     0
291
     0
 45
0.0
  0
VISUALSTYLE
  5
35
102
{ACAD_REACTORS
330
2A
102
}
102
{ACAD_XDICTIONARY
360
3E6
102
}
330
2A
100
AcDbVisualStyle
  2
Dim
 70
    11
 71
     2
 72
     2
 73
     0
 90
        0
 40
0.6
 41
30.0
 62
     5
 63
     7
421
 16777215
 74
     1
 91
        4
 64
     7
 65
   257
 75
     1
175
     1
 42
1.0
 92
        8
 66
     7
 43
1.0
 76
     1
 77
     6
 78
     2
 67
     7
 79
     5
170
     0
171
     0
290
     0
174
     0
 93
        1
 44
-50.0
173
     0
291
     1
 45
0.0
  0
VISUALSTYLE
  5
3D
102
{ACAD_REACTORS
330
2A
102
}
102
{ACAD_XDICTIONARY
360
3F6
102
}
330
2A
100
AcDbVisualStyle
  2
EdgeColorOff
 70
    22
 71
     2
 72
     2
 73
     0
 90
        0
 40
0.6
 41
30.0
 62
     5
 63
     7
421
 16777215
 74
     1
 91
        4
 64
     7
 65
   257
 75
     1
175
     1
 42
1.0
 92
        8
 66
     7
 43
1.0
 76
     1
 77
     6
 78
     2
 67
     7
 79
     5
170
     0
171
     0
290
     0
174
     0
 93
        1
 44
0.0
173
     0
291
     1
 45
0.0
  0
VISUALSTYLE
  5
39
102
{ACAD_REACTORS
330
2A
102
}
102
{ACAD_XDICTIONARY
360
3EE
102
}
330
2A
100
AcDbVisualStyle
  2
Facepattern
 70
    15
 71
     2
 72
     2
 73
     0
 90
        0
 40
0.6
 41
30.0
 62
     5
 63
     7
421
 16777215
 74
     1
 91
        4
 64
     7
 65
   257
 75
     1
175
     1
 42
1.0
 92
        8
 66
     7
 43
1.0
 76
     1
 77
     6
 78
     2
 67
     7
 79
     5
170
     0
171
     0
290
     0
174
     0
 93
        1
 44
0.0
173
     0
291
     1
 45
0.0
  0
VISUALSTYLE
  5
2B
102
{ACAD_REACTORS
330
2A
102
}
102
{ACAD_XDICTIONARY
360
3D2
102
}
330
2A
100
AcDbVisualStyle
  2
Flat
 70
     0
 71
     2
 72
     1
 73
     1
 90
        2
 40
0.6
 41
30.0
 62
     5
 63
     7
421
 16777215
 74
     0
 91
        0
 64
     7
 65
   257
 75
     1
175
     1
 42
1.0
 92
        8
 66
     7
 43
1.0
 76
     1
 77
     6
 78
     2
 67
     7
 79
     5
170
     0
171
     0
290
     0
174
     0
 93
       13
 44
0.0
173
     0
291
     1
 45
0.0
  0
VISUALSTYLE
  5
2C
102
{ACAD_REACTORS
330
2A
102
}
102
{ACAD_XDICTIONARY
360
3D4
102
}
330
2A
100
AcDbVisualStyle
  2
FlatWithEdges
 70
     1
 71
     2
 72
     1
 73
     1
 90
        2
 40
0.6
 41
30.0
 62
     5
 63
     7
421
 16777215
 74
     1
 91
        0
 64
     7
 65
   257
 75
     1
175
     1
 42
1.0
 92
        0
 66
   257
 43
1.0
 76
     1
 77
     6
 78
     2
 67
     7
 79
     5
170
     0
171
     0
290
     0
174
     0
 93
       13
 44
0.0
173
     0
291
     1
 45
0.0
  0
VISUALSTYLE
  5
2D
102
{ACAD_REACTORS
330
2A
102
}
102
{ACAD_XDICTIONARY
360
3D6
102
}
330
2A
100
AcDbVisualStyle
  2
Gouraud
 70
     2
 71
     2
 72
     2
 73
     1
 90
        2
 40
0.6
 41
30.0
 62
     5
 63
     7
421
 16777215
 74
     0
 91
        0
 64
     7
 65
   257
 75
     1
175
     1
 42
1.0
 92
        0
 66
     7
 43
1.0
 76
     1
 77
     6
 78
     2
 67
     7
 79
     5
170
     0
171
     0
290
     0
174
     0
 93
       13
 44
0.0
173
     0
291
     1
 45
0.0
  0
VISUALSTYLE
  5
2E
102
{ACAD_REACTORS
330
2A
102
}
102
{ACAD_XDICTIONARY
360
3D8
102
}
330
2A
100
AcDbVisualStyle
  2
GouraudWithEdges
 70
     3
 71
     2
 72
     2
 73
     1
 90
        2
 40
0.6
 41
30.0
 62
     5
 63
     7
421
 16777215
 74
     1
 91
        0
 64
     7
 65
   257
 75
     1
175
     1
 42
1.0
 92
        0
 66
   257
 43
1.0
 76
     1
 77
     6
 78
     2
 67
     7
 79
     5
170
     0
171
     0
290
     0
174
     0
 93
       13
 44
0.0
173
     0
291
     1
 45
0.0
  0
VISUALSTYLE
  5
31
102
{ACAD_REACTORS
330
2A
102
}
102
{ACAD_XDICTIONARY
360
3DE
102
}
330
2A
100
AcDbVisualStyle
  2
Hidden
 70
     6
 71
     1
 72
     2
 73
     2
 90
        0
 40
0.6
 41
30.0
 62
     5
 63
     7
421
 16777215
 74
     2
 91
        2
 64
     7
 65
   257
 75
     2
175
     1
 42
40.0
 92
        0
 66
   257
 43
1.0
 76
     1
 77
     6
 78
     2
 67
     7
 79
     3
170
     0
171
     0
290
     0
174
     0
 93
        1
 44
0.0
173
     0
291
     0
 45
0.0
  0
VISUALSTYLE
  5
3B
102
{ACAD_REACTORS
330
2A
102
}
102
{ACAD_XDICTIONARY
360
3F2
102
}
330
2A
100
AcDbVisualStyle
  2
JitterOff
 70
    20
 71
     2
 72
     2
 73
     0
 90
        0
 40
0.6
 41
30.0
 62
     5
 63
     7
421
 16777215
 74
     1
 91
        4
 64
     7
 65
   257
 75
     1
175
     1
 42
1.0
 92
       10
 66
     7
 43
1.0
 76
     1
 77
     6
 78
     2
 67
     7
 79
     5
170
     0
171
     0
290
     0
174
     0
 93
        1
 44
0.0
173
     0
291
     1
 45
0.0
  0
VISUALSTYLE
  5
38
102
{ACAD_REACTORS
330
2A
102
}
102
{ACAD_XDICTIONARY
360
3EC
102
}
330
2A
100
AcDbVisualStyle
  2
Linepattern
 70
    14
 71
     2
 72
     2
 73
     0
 90
        0
 40
0.6
 41
30.0
 62
     5
 63
     7
421
 16777215
 74
     1
 91
        4
 64
     7
 65
   257
 75
     7
175
     7
 42
1.0
 92
        8
 66
     7
 43
1.0
 76
     1
 77
     6
 78
     2
 67
     7
 79
     5
170
     0
171
     0
290
     0
174
     0
 93
        1
 44
0.0
173
     0
291
     1
 45
0.0
  0
VISUALSTYLE
  5
3C
102
{ACAD_REACTORS
330
2A
102
}
102
{ACAD_XDICTIONARY
360
3F4
102
}
330
2A
100
AcDbVisualStyle
  2
OverhangOff
 70
    21
 71
     2
 72
     2
 73
     0
 90
        0
 40
0.6
 41
30.0
 62
     5
 63
     7
421
 16777215
 74
     1
 91
        4
 64
     7
 65
   257
 75
     1
175
     1
 42
1.0
 92
        9
 66
     7
 43
1.0
 76
     1
 77
     6
 78
     2
 67
     7
 79
     5
170
     0
171
     0
290
     0
174
     0
 93
        1
 44
0.0
173
     0
291
     1
 45
0.0
  0
VISUALSTYLE
  5
33
102
{ACAD_REACTORS
330
2A
102
}
102
{ACAD_XDICTIONARY
360
3E2
102
}
330
2A
100
AcDbVisualStyle
  2
Realistic
 70
     8
 71
     2
 72
     3
 73
     0
 90
        2
 40
0.6
 41
30.0
 62
     5
 63
     7
421
 16777215
 74
     0
 91
        0
 64
     7
 65
   257
 75
     1
175
     1
 42
1.0
 92
        8
 66
   257
 43
1.0
 76
     1
 77
     6
 78
     2
 67
     7
 79
     3
170
     0
171
     0
290
     0
174
     0
 93
       13
 44
0.0
173
     0
291
     0
 45
0.0
  0
VISUALSTYLE
  5
42
102
{ACAD_REACTORS
330
2A
102
}
102
{ACAD_XDICTIONARY
360
400
102
}
330
2A
100
AcDbVisualStyle
  2
Shaded
 70
    27
 71
     2
 72
     2
 73
     1
 90
        2
 40
0.6
 41
30.0
 62
     5
 63
     7
421
 16777215
 74
     0
 91
        4
 64
     7
 65
   257
 75
     1
175
     1
 42
1.0
 92
        8
 66
   257
 43
1.0
 76
     1
 77
     6
 78
     2
 67
     8
425
  7895160
 79
     3
170
     0
171
     0
290
     0
174
     0
 93
        5
 44
0.0
173
     0
291
     0
 45
0.0
  0
VISUALSTYLE
  5
41
102
{ACAD_REACTORS
330
2A
102
}
102
{ACAD_XDICTIONARY
360
3FE
102
}
330
2A
100
AcDbVisualStyle
  2
Shaded with edges
 70
    26
 71
     2
 72
     2
 73
     1
 90
        2
 40
0.6
 41
30.0
 62
     5
 63
     7
421
 16777215
 74
     1
 91
       10
 64
     7
 65
   257
 75
     2
175
     1
 42
1.0
 92
        8
 66
   257
 43
1.0
 76
     1
 77
     6
 78
     2
 67
     7
 79
     3
170
     0
171
     0
290
     0
174
     0
 93
        5
 44
0.0
173
     0
291
     0
 45
0.0
  0
VISUALSTYLE
  5
3E
102
{ACAD_REACTORS
330
2A
102
}
102
{ACAD_XDICTIONARY
360
3F8
102
}
330
2A
100
AcDbVisualStyle
  2
Shades of Gray
 70
    23
 71
     2
 72
     2
 73
     3
 90
        0
 40
0.6
 41
30.0
 62
     5
 63
     7
421
 16777215
 74
     2
 91
        2
 64
     7
 65
     7
 75
     1
175
     1
 42
40.0
 92
        8
 66
     7
 43
1.0
 76
     1
 77
     6
 78
     2
 67
     7
 79
     3
170
     0
171
     0
290
     0
174
     0
 93
        1
 44
0.0
173
     0
291
     0
 45
0.0
  0
VISUALSTYLE
  5
3F
102
{ACAD_REACTORS
330
2A
102
}
102
{ACAD_XDICTIONARY
360
3FA
102
}
330
2A
100
AcDbVisualStyle
  2
Sketchy
 70
    24
 71
     1
 72
     2
 73
     2
 90
        0
 40
0.6
 41
30.0
 62
     5
 63
     7
421
 16777215
 74
     2
 91
        2
 64
     7
 65
     7
 75
     1
175
     1
 42
40.0
 92
       11
 66
     7
 43
1.0
 76
     1
 77
     6
 78
     2
 67
     7
 79
     6
170
     0
171
     0
290
     0
174
     0
 93
        1
 44
0.0
173
     0
291
     0
 45
0.0
  0
VISUALSTYLE
  5
37
102
{ACAD_REACTORS
330
2A
102
}
102
{ACAD_XDICTIONARY
360
3EA
102
}
330
2A
100
AcDbVisualStyle
  2
Thicken
 70
    13
 71
     2
 72
     2
 73
     0
 90
        0
 40
0.6
 41
30.0
 62
     5
 63
     7
421
 16777215
 74
     1
 91
        4
 64
     7
 65
   257
 75
     1
175
     1
 42
1.0
 92
       12
 66
     7
 43
1.0
 76
     1
 77
     6
 78
     2
 67
     7
 79
     5
170
     0
171
     0
290
     0
174
     0
 93
        1
 44
0.0
173
     0
291
     1
 45
0.0
  0
VISUALSTYLE
  5
30
102
{ACAD_REACTORS
330
2A
102
}
102
{ACAD_XDICTIONARY
360
3DC
102
}
330
2A
100
AcDbVisualStyle
  2
Wireframe
 70
     5
 71
     0
 72
     2
 73
     0
 90
        0
 40
0.6
 41
30.0
 62
     5
 63
     7
421
 16777215
 74
     1
 91
        4
 64
     7
 65
   257
 75
     1
175
     1
 42
1.0
 92
        0
 66
   257
 43
1.0
 76
     1
 77
     6
 78
     2
 67
     7
 79
     3
170
     0
171
     0
290
     0
174
     0
 93
        1
 44
0.0
173
     0
291
     0
 45
0.0
  0
VISUALSTYLE
  5
40
102
{ACAD_REACTORS
330
2A
102
}
102
{ACAD_XDICTIONARY
360
3FC
102
}
330
2A
100
AcDbVisualStyle
  2
X-Ray
 70
    25
 71
     2
 72
     2
 73
     1
 90
        1
 40
0.5
 41
30.0
 62
     5
 63
     7
421
 16777215
 74
     1
 91
        0
 64
     7
 65
   257
 75
     1
175
     1
 42
1.0
 92
        8
 66
     7
 43
1.0
 76
     1
 77
     6
 78
     2
 67
     7
 79
     3
170
     0
171
     0
290
     0
174
     0
 93
       13
 44
0.0
173
     0
291
     0
 45
0.0
  0
DICTIONARYVAR
  5
3D0
102
{ACAD_REACTORS
330
3CF
102
}
330
3CF
100
DictionaryVariables
280
     0
  1
1:1
  0
DICTIONARYVAR
  5
409
102
{ACAD_REACTORS
330
3CF
102
}
330
3CF
100
DictionaryVariables
280
     0
  1
Standard
  0
DICTIONARYVAR
  5
408
102
{ACAD_REACTORS
330
3CF
102
}
330
3CF
100
DictionaryVariables
280
     0
  1
Standard
  0
DICTIONARYVAR
  5
3D1
102
{ACAD_REACTORS
330
3CF
102
}
330
3CF
100
DictionaryVariables
280
     0
  1
2
  0
DICTIONARY
  5
405
330
6C
100
AcDbDictionary
280
     1
281
     1
  3
ACAD_XREC_ROUNDTRIP
360
406
  0
DICTIONARY
  5
402
330
6A
100
AcDbDictionary
280
     1
281
     1
  3
ACAD_ROUNDTRIP_2008_TABLESTYLE_CELLSTYLEMAP
360
403
  0
DICTIONARY
  5
3DA
330
2F
100
AcDbDictionary
280
     1
281
     1
  3
ACAD_XREC_ROUNDTRIP
360
3DB
  0
DICTIONARY
  5
3E0
330
32
100
AcDbDictionary
280
     1
281
     1
  3
ACAD_XREC_ROUNDTRIP
360
3E1
  0
DICTIONARY
  5
3E8
330
36
100
AcDbDictionary
280
     1
281
     1
  3
ACAD_XREC_ROUNDTRIP
360
3E9
  0
DICTIONARY
  5
3F0
330
3A
100
AcDbDictionary
280
     1
281
     1
  3
ACAD_XREC_ROUNDTRIP
360
3F1
  0
DICTIONARY
  5
3E4
330
34
100
AcDbDictionary
280
     1
281
     1
  3
ACAD_XREC_ROUNDTRIP
360
3E5
  0
DICTIONARY
  5
3E6
330
35
100
AcDbDictionary
280
     1
281
     1
  3
ACAD_XREC_ROUNDTRIP
360
3E7
  0
DICTIONARY
  5
3F6
330
3D
100
AcDbDictionary
280
     1
281
     1
  3
ACAD_XREC_ROUNDTRIP
360
3F7
  0
DICTIONARY
  5
3EE
330
39
100
AcDbDictionary
280
     1
281
     1
  3
ACAD_XREC_ROUNDTRIP
360
3EF
  0
DICTIONARY
  5
3D2
330
2B
100
AcDbDictionary
280
     1
281
     1
  3
ACAD_XREC_ROUNDTRIP
360
3D3
  0
DICTIONARY
  5
3D4
330
2C
100
AcDbDictionary
280
     1
281
     1
  3
ACAD_XREC_ROUNDTRIP
360
3D5
  0
DICTIONARY
  5
3D6
330
2D
100
AcDbDictionary
280
     1
281
     1
  3
ACAD_XREC_ROUNDTRIP
360
3D7
  0
DICTIONARY
  5
3D8
330
2E
100
AcDbDictionary
280
     1
281
     1
  3
ACAD_XREC_ROUNDTRIP
360
3D9
  0
DICTIONARY
  5
3DE
330
31
100
AcDbDictionary
280
     1
281
     1
  3
ACAD_XREC_ROUNDTRIP
360
3DF
  0
DICTIONARY
  5
3F2
330
3B
100
AcDbDictionary
280
     1
281
     1
  3
ACAD_XREC_ROUNDTRIP
360
3F3
  0
DICTIONARY
  5
3EC
330
38
100
AcDbDictionary
280
     1
281
     1
  3
ACAD_XREC_ROUNDTRIP
360
3ED
  0
DICTIONARY
  5
3F4
330
3C
100
AcDbDictionary
280
     1
281
     1
  3
ACAD_XREC_ROUNDTRIP
360
3F5
  0
DICTIONARY
  5
3E2
330
33
100
AcDbDictionary
280
     1
281
     1
  3
ACAD_XREC_ROUNDTRIP
360
3E3
  0
DICTIONARY
  5
400
330
42
100
AcDbDictionary
280
     1
281
     1
  3
ACAD_XREC_ROUNDTRIP
360
401
  0
DICTIONARY
  5
3FE
330
41
100
AcDbDictionary
280
     1
281
     1
  3
ACAD_XREC_ROUNDTRIP
360
3FF
  0
DICTIONARY
  5
3F8
330
3E
100
AcDbDictionary
280
     1
281
     1
  3
ACAD_XREC_ROUNDTRIP
360
3F9
  0
DICTIONARY
  5
3FA
330
3F
100
AcDbDictionary
280
     1
281
     1
  3
ACAD_XREC_ROUNDTRIP
360
3FB
  0
DICTIONARY
  5
3EA
330
37
100
AcDbDictionary
280
     1
281
     1
  3
ACAD_XREC_ROUNDTRIP
360
3EB
  0
DICTIONARY
  5
3DC
330
30
100
AcDbDictionary
280
     1
281
     1
  3
ACAD_XREC_ROUNDTRIP
360
3DD
  0
DICTIONARY
  5
3FC
330
40
100
AcDbDictionary
280
     1
281
     1
  3
ACAD_XREC_ROUNDTRIP
360
3FD
  0
XRECORD
  5
406
102
{ACAD_REACTORS
330
405
102
}
330
405
100
AcDbXrecord
280
     1
102
ACAD_ROUNDTRIP_2010_MLEADER_STYLE
  0
CELLSTYLEMAP
  5
403
102
{ACAD_REACTORS
330
402
102
}
330
402
100
AcDbCellStyleMap
 90
        3
300
CELLSTYLE
  1
TABLEFORMAT_BEGIN
 90
        5
170
     1
 91
        0
 92
    32768
 62
   257
 93
        1
300
CONTENTFORMAT
  1
CONTENTFORMAT_BEGIN
 90
        0
 91
        0
 92
        4
 93
        0
300

 40
0.0
140
1.0
 94
        5
 62
     0
340
11
144
0.25
309
CONTENTFORMAT_END
171
     1
301
MARGIN
  1
CELLMARGIN_BEGIN
 40
0.06
 40
0.06
 40
0.06
 40
0.06
 40
0.06
 40
0.06
309
CELLMARGIN_END
 94
        6
 95
        1
302
GRIDFORMAT
  1
GRIDFORMAT_BEGIN
 90
        0
 91
        1
 62
     0
 92
       -2
340
14
 93
        0
 40
0.045
309
GRIDFORMAT_END
 95
        2
302
GRIDFORMAT
  1
GRIDFORMAT_BEGIN
 90
        0
 91
        1
 62
     0
 92
       -2
340
14
 93
        0
 40
0.045
309
GRIDFORMAT_END
 95
        4
302
GRIDFORMAT
  1
GRIDFORMAT_BEGIN
 90
        0
 91
        1
 62
     0
 92
       -2
340
14
 93
        0
 40
0.045
309
GRIDFORMAT_END
 95
        8
302
GRIDFORMAT
  1
GRIDFORMAT_BEGIN
 90
        0
 91
        1
 62
     0
 92
       -2
340
14
 93
        0
 40
0.045
309
GRIDFORMAT_END
 95
       16
302
GRIDFORMAT
  1
GRIDFORMAT_BEGIN
 90
        0
 91
        1
 62
     0
 92
       -2
340
14
 93
        0
 40
0.045
309
GRIDFORMAT_END
 95
       32
302
GRIDFORMAT
  1
GRIDFORMAT_BEGIN
 90
        0
 91
        1
 62
     0
 92
       -2
340
14
 93
        0
 40
0.045
309
GRIDFORMAT_END
309
TABLEFORMAT_END
  1
CELLSTYLE_BEGIN
 90
        1
 91
        1
300
_TITLE
309
CELLSTYLE_END
300
CELLSTYLE
  1
TABLEFORMAT_BEGIN
 90
        5
170
     1
 91
        0
 92
        0
 62
   257
 93
        1
300
CONTENTFORMAT
  1
CONTENTFORMAT_BEGIN
 90
        0
 91
        0
 92
        4
 93
        0
300

 40
0.0
140
1.0
 94
        5
 62
     0
340
11
144
0.18
309
CONTENTFORMAT_END
171
     1
301
MARGIN
  1
CELLMARGIN_BEGIN
 40
0.06
 40
0.06
 40
0.06
 40
0.06
 40
0.06
 40
0.06
309
CELLMARGIN_END
 94
        6
 95
        1
302
GRIDFORMAT
  1
GRIDFORMAT_BEGIN
 90
        0
 91
        1
 62
     0
 92
       -2
340
14
 93
        0
 40
0.045
309
GRIDFORMAT_END
 95
        2
302
GRIDFORMAT
  1
GRIDFORMAT_BEGIN
 90
        0
 91
        1
 62
     0
 92
       -2
340
14
 93
        0
 40
0.045
309
GRIDFORMAT_END
 95
        4
302
GRIDFORMAT
  1
GRIDFORMAT_BEGIN
 90
        0
 91
        1
 62
     0
 92
       -2
340
14
 93
        0
 40
0.045
309
GRIDFORMAT_END
 95
        8
302
GRIDFORMAT
  1
GRIDFORMAT_BEGIN
 90
        0
 91
        1
 62
     0
 92
       -2
340
14
 93
        0
 40
0.045
309
GRIDFORMAT_END
 95
       16
302
GRIDFORMAT
  1
GRIDFORMAT_BEGIN
 90
        0
 91
        1
 62
     0
 92
       -2
340
14
 93
        0
 40
0.045
309
GRIDFORMAT_END
 95
       32
302
GRIDFORMAT
  1
GRIDFORMAT_BEGIN
 90
        0
 91
        1
 62
     0
 92
       -2
340
14
 93
        0
 40
0.045
309
GRIDFORMAT_END
309
TABLEFORMAT_END
  1
CELLSTYLE_BEGIN
 90
        2
 91
        1
300
_HEADER
309
CELLSTYLE_END
300
CELLSTYLE
  1
TABLEFORMAT_BEGIN
 90
        5
170
     1
 91
        0
 92
        0
 62
   257
 93
        1
300
CONTENTFORMAT
  1
CONTENTFORMAT_BEGIN
 90
        0
 91
        0
 92
        4
 93
        0
300

 40
0.0
140
1.0
 94
        2
 62
     0
340
11
144
0.18
309
CONTENTFORMAT_END
171
     1
301
MARGIN
  1
CELLMARGIN_BEGIN
 40
0.06
 40
0.06
 40
0.06
 40
0.06
 40
0.06
 40
0.06
309
CELLMARGIN_END
 94
        6
 95
        1
302
GRIDFORMAT
  1
GRIDFORMAT_BEGIN
 90
        0
 91
        1
 62
     0
 92
       -2
340
14
 93
        0
 40
0.045
309
GRIDFORMAT_END
 95
        2
302
GRIDFORMAT
  1
GRIDFORMAT_BEGIN
 90
        0
 91
        1
 62
     0
 92
       -2
340
14
 93
        0
 40
0.045
309
GRIDFORMAT_END
 95
        4
302
GRIDFORMAT
  1
GRIDFORMAT_BEGIN
 90
        0
 91
        1
 62
     0
 92
       -2
340
14
 93
        0
 40
0.045
309
GRIDFORMAT_END
 95
        8
302
GRIDFORMAT
  1
GRIDFORMAT_BEGIN
 90
        0
 91
        1
 62
     0
 92
       -2
340
14
 93
        0
 40
0.045
309
GRIDFORMAT_END
 95
       16
302
GRIDFORMAT
  1
GRIDFORMAT_BEGIN
 90
        0
 91
        1
 62
     0
 92
       -2
340
14
 93
        0
 40
0.045
309
GRIDFORMAT_END
 95
       32
302
GRIDFORMAT
  1
GRIDFORMAT_BEGIN
 90
        0
 91
        1
 62
     0
 92
       -2
340
14
 93
        0
 40
0.045
309
GRIDFORMAT_END
309
TABLEFORMAT_END
  1
CELLSTYLE_BEGIN
 90
        3
 91
        2
300
_DATA
309
CELLSTYLE_END
  0
XRECORD
  5
3DB
102
{ACAD_REACTORS
330
3DA
102
}
330
3DA
100
AcDbXrecord
280
     1
102
RTVSPropertyOp0
 70
     1
102
RTVSPropertyOp1
 70
     1
102
RTVSPropertyOp2
 70
     1
102
RTVSPropertyOp3
 70
     1
102
RTVSPropertyOp4
 70
     1
102
RTVSPropertyOp5
 70
     1
102
RTVSPropertyOp6
 70
     1
102
RTVSPropertyOp7
 70
     1
102
RTVSPropertyOp8
 70
     1
102
RTVSPropertyOp9
 70
     1
102
RTVSPropertyOp10
 70
     1
102
RTVSPropertyOp11
 70
     1
102
RTVSPropertyOp12
 70
     1
102
RTVSPropertyOp13
 70
     1
102
RTVSPropertyOp14
 70
     1
102
RTVSPropertyOp15
 70
     1
102
RTVSPropertyOp16
 70
     1
102
RTVSPropertyOp17
 70
     1
102
RTVSPropertyOp18
 70
     1
102
RTVSPropertyOp19
 70
     1
102
RTVSPropertyOp20
 70
     1
102
RTVSPropertyOp21
 70
     1
102
RTVSPropertyOp22
 70
     1
102
RTVSPropertyOp23
 70
     1
102
RTVSPropertyOp24
 70
     1
102
RTVSPropertyOp25
 70
     1
102
RTVSPropertyOp26
 70
     1
102
RTVSPropertyOp27
 70
     1
102
RTVSPropertyOp28
 70
     1
102
RTVSPropertyOp29
 70
     1
102
RTVSPropertyOp30
 70
     1
102
RTVSPropertyOp31
 70
     1
102
RTVSPropertyOp32
 70
     1
102
RTVSPropertyOp33
 70
     1
102
RTVSPropertyOp34
 70
     1
102
RTVSPropertyOp35
 70
     1
102
RTVSPropertyOp36
 70
     1
102
RTVSPropertyOp37
 70
     1
102
RTVSPropertyOp38
 70
     1
102
RTVSPropertyOp39
 70
     1
102
RTVSPropertyOp40
 70
     1
102
RTVSPropertyOp41
 70
     1
102
RTVSPropertyOp42
 70
     1
102
RTVSPropertyOp43
 70
     1
102
RTVSPropertyOp44
 70
     1
102
RTVSPropertyOp45
 70
     1
102
RTVSPropertyOp46
 70
     1
102
RTVSPropertyOp47
 70
     1
102
RTVSPropertyOp48
 70
     1
102
RTVSPropertyOp49
 70
     1
102
RTVSPropertyOp50
 70
     1
102
RTVSPropertyOp51
 70
     0
102
RTVSPropertyOp52
 70
     0
102
RTVSPropertyOp53
 70
     1
102
RTVSPropertyOp54
 70
     1
102
RTVSPropertyOp55
 70
     1
102
RTVSPropertyOp56
 70
     1
102
RTVSPropertyOp57
 70
     1
102
RTVSPost2010Prop28
280
     1
102
RTVSPost2010PropOp28
 70
     1
102
RTVSPost2010Prop29
280
     1
102
RTVSPost2010PropOp29
 70
     1
102
RTVSPost2010Prop30
280
     0
102
RTVSPost2010PropOp30
 70
     1
102
RTVSPost2010Prop31
280
     0
102
RTVSPost2010PropOp31
 70
     1
102
RTVSPost2010Prop32
280
     0
102
RTVSPost2010PropOp32
 70
     1
102
RTVSPost2010Prop33
280
     0
102
RTVSPost2010PropOp33
 70
     1
102
RTVSPost2010Prop34
280
     0
102
RTVSPost2010PropOp34
 70
     1
102
RTVSPost2010Prop35
280
     0
102
RTVSPost2010PropOp35
 70
     1
102
RTVSPost2010Prop36
280
     0
102
RTVSPost2010PropOp36
 70
     1
102
RTVSPost2010Prop37
 90
       50
102
RTVSPost2010PropOp37
 70
     1
102
RTVSPost2010Prop38
140
0.0
102
RTVSPost2010PropOp38
 70
     1
102
RTVSPost2010Prop39
140
1.0
102
RTVSPost2010PropOp39
 70
     1
102
RTVSPost2010Prop40
 90
        0
102
RTVSPost2010PropOp40
 70
     1
102
RTVSPost2010Prop41ColorIndex
 90
       18
102
RTVSPost2010Prop41ColorRGB
 90
        0
102
RTVSPost2010PropOp41
 70
     1
102
RTVSPost2010Prop42
 90
       50
102
RTVSPost2010PropOp42
 70
     1
102
RTVSPost2010Prop43
 90
        3
102
RTVSPost2010PropOp43
 70
     1
102
RTVSPost2010Prop44ColorIndex
 90
        5
102
RTVSPost2010Prop44ColorRGB
 90
      255
102
RTVSPost2010PropOp44
 70
     1
102
RTVSPost2010Prop45
280
     0
102
RTVSPost2010PropOp45
 70
     1
102
RTVSPost2010Prop46
 90
       50
102
RTVSPost2010PropOp46
 70
     1
102
RTVSPost2010Prop47
 90
       50
102
RTVSPost2010PropOp47
 70
     1
102
RTVSPost2010Prop48
 90
       50
102
RTVSPost2010PropOp48
 70
     1
102
RTVSPost2010Prop49
280
     0
102
RTVSPost2010PropOp49
 70
     1
102
RTVSPost2010Prop50
 90
       50
102
RTVSPost2010PropOp50
 70
     1
102
RTVSPost2010Prop51ColorIndex
 90
      256
102
RTVSPost2010Prop51ColorRGB
 90
-16777216
102
RTVSPost2010PropOp51
 70
     0
102
RTVSPost2010Prop52
140
1.0
102
RTVSPost2010PropOp52
 70
     0
102
RTVSPost2010Prop53
 90
        2
102
RTVSPost2010PropOp53
 70
     1
102
RTVSPost2010Prop54
  1
strokes_ogs.tif
102
RTVSPost2010PropOp54
 70
     1
102
RTVSPost2010Prop55
280
     0
102
RTVSPost2010PropOp55
 70
     1
102
RTVSPost2010Prop56
140
1.0
102
RTVSPost2010PropOp56
 70
     1
102
RTVSPost2010Prop57
140
1.0
102
RTVSPost2010PropOp57
 70
     1
  0
XRECORD
  5
3E1
102
{ACAD_REACTORS
330
3E0
102
}
330
3E0
100
AcDbXrecord
280
     1
102
RTVSPropertyOp0
 70
     1
102
RTVSPropertyOp1
 70
     1
102
RTVSPropertyOp2
 70
     1
102
RTVSPropertyOp3
 70
     1
102
RTVSPropertyOp4
 70
     1
102
RTVSPropertyOp5
 70
     1
102
RTVSPropertyOp6
 70
     1
102
RTVSPropertyOp7
 70
     1
102
RTVSPropertyOp8
 70
     1
102
RTVSPropertyOp9
 70
     1
102
RTVSPropertyOp10
 70
     1
102
RTVSPropertyOp11
 70
     1
102
RTVSPropertyOp12
 70
     1
102
RTVSPropertyOp13
 70
     1
102
RTVSPropertyOp14
 70
     1
102
RTVSPropertyOp15
 70
     1
102
RTVSPropertyOp16
 70
     1
102
RTVSPropertyOp17
 70
     1
102
RTVSPropertyOp18
 70
     1
102
RTVSPropertyOp19
 70
     1
102
RTVSPropertyOp20
 70
     1
102
RTVSPropertyOp21
 70
     1
102
RTVSPropertyOp22
 70
     1
102
RTVSPropertyOp23
 70
     1
102
RTVSPropertyOp24
 70
     1
102
RTVSPropertyOp25
 70
     1
102
RTVSPropertyOp26
 70
     1
102
RTVSPropertyOp27
 70
     1
102
RTVSPropertyOp28
 70
     1
102
RTVSPropertyOp29
 70
     1
102
RTVSPropertyOp30
 70
     1
102
RTVSPropertyOp31
 70
     1
102
RTVSPropertyOp32
 70
     1
102
RTVSPropertyOp33
 70
     1
102
RTVSPropertyOp34
 70
     1
102
RTVSPropertyOp35
 70
     1
102
RTVSPropertyOp36
 70
     1
102
RTVSPropertyOp37
 70
     1
102
RTVSPropertyOp38
 70
     1
102
RTVSPropertyOp39
 70
     1
102
RTVSPropertyOp40
 70
     1
102
RTVSPropertyOp41
 70
     1
102
RTVSPropertyOp42
 70
     1
102
RTVSPropertyOp43
 70
     1
102
RTVSPropertyOp44
 70
     1
102
RTVSPropertyOp45
 70
     1
102
RTVSPropertyOp46
 70
     1
102
RTVSPropertyOp47
 70
     1
102
RTVSPropertyOp48
 70
     1
102
RTVSPropertyOp49
 70
     1
102
RTVSPropertyOp50
 70
     1
102
RTVSPropertyOp51
 70
     0
102
RTVSPropertyOp52
 70
     0
102
RTVSPropertyOp53
 70
     1
102
RTVSPropertyOp54
 70
     1
102
RTVSPropertyOp55
 70
     1
102
RTVSPropertyOp56
 70
     1
102
RTVSPropertyOp57
 70
     1
102
RTVSPost2010Prop28
280
     0
102
RTVSPost2010PropOp28
 70
     1
102
RTVSPost2010Prop29
280
     1
102
RTVSPost2010PropOp29
 70
     1
102
RTVSPost2010Prop30
280
     1
102
RTVSPost2010PropOp30
 70
     1
102
RTVSPost2010Prop31
280
     0
102
RTVSPost2010PropOp31
 70
     1
102
RTVSPost2010Prop32
280
     0
102
RTVSPost2010PropOp32
 70
     1
102
RTVSPost2010Prop33
280
     0
102
RTVSPost2010PropOp33
 70
     1
102
RTVSPost2010Prop34
280
     0
102
RTVSPost2010PropOp34
 70
     1
102
RTVSPost2010Prop35
280
     0
102
RTVSPost2010PropOp35
 70
     1
102
RTVSPost2010Prop36
280
     0
102
RTVSPost2010PropOp36
 70
     1
102
RTVSPost2010Prop37
 90
       50
102
RTVSPost2010PropOp37
 70
     1
102
RTVSPost2010Prop38
140
0.0
102
RTVSPost2010PropOp38
 70
     1
102
RTVSPost2010Prop39
140
1.0
102
RTVSPost2010PropOp39
 70
     1
102
RTVSPost2010Prop40
 90
        0
102
RTVSPost2010PropOp40
 70
     1
102
RTVSPost2010Prop41ColorIndex
 90
       18
102
RTVSPost2010Prop41ColorRGB
 90
        0
102
RTVSPost2010PropOp41
 70
     1
102
RTVSPost2010Prop42
 90
       50
102
RTVSPost2010PropOp42
 70
     1
102
RTVSPost2010Prop43
 90
        3
102
RTVSPost2010PropOp43
 70
     1
102
RTVSPost2010Prop44ColorIndex
 90
        5
102
RTVSPost2010Prop44ColorRGB
 90
      255
102
RTVSPost2010PropOp44
 70
     1
102
RTVSPost2010Prop45
280
     0
102
RTVSPost2010PropOp45
 70
     1
102
RTVSPost2010Prop46
 90
       50
102
RTVSPost2010PropOp46
 70
     1
102
RTVSPost2010Prop47
 90
       50
102
RTVSPost2010PropOp47
 70
     1
102
RTVSPost2010Prop48
 90
       50
102
RTVSPost2010PropOp48
 70
     1
102
RTVSPost2010Prop49
280
     0
102
RTVSPost2010PropOp49
 70
     1
102
RTVSPost2010Prop50
 90
       50
102
RTVSPost2010PropOp50
 70
     1
102
RTVSPost2010Prop51ColorIndex
 90
      256
102
RTVSPost2010Prop51ColorRGB
 90
-16777216
102
RTVSPost2010PropOp51
 70
     0
102
RTVSPost2010Prop52
140
1.0
102
RTVSPost2010PropOp52
 70
     0
102
RTVSPost2010Prop53
 90
        2
102
RTVSPost2010PropOp53
 70
     1
102
RTVSPost2010Prop54
  1
strokes_ogs.tif
102
RTVSPost2010PropOp54
 70
     1
102
RTVSPost2010Prop55
280
     0
102
RTVSPost2010PropOp55
 70
     1
102
RTVSPost2010Prop56
140
1.0
102
RTVSPost2010PropOp56
 70
     1
102
RTVSPost2010Prop57
140
1.0
102
RTVSPost2010PropOp57
 70
     1
  0
XRECORD
  5
3E9
102
{ACAD_REACTORS
330
3E8
102
}
330
3E8
100
AcDbXrecord
280
     1
102
RTVSPropertyOp0
 70
     1
102
RTVSPropertyOp1
 70
     1
102
RTVSPropertyOp2
 70
     1
102
RTVSPropertyOp3
 70
     1
102
RTVSPropertyOp4
 70
     1
102
RTVSPropertyOp5
 70
     1
102
RTVSPropertyOp6
 70
     1
102
RTVSPropertyOp7
 70
     1
102
RTVSPropertyOp8
 70
     1
102
RTVSPropertyOp9
 70
     1
102
RTVSPropertyOp10
 70
     1
102
RTVSPropertyOp11
 70
     1
102
RTVSPropertyOp12
 70
     1
102
RTVSPropertyOp13
 70
     1
102
RTVSPropertyOp14
 70
     1
102
RTVSPropertyOp15
 70
     1
102
RTVSPropertyOp16
 70
     1
102
RTVSPropertyOp17
 70
     1
102
RTVSPropertyOp18
 70
     1
102
RTVSPropertyOp19
 70
     1
102
RTVSPropertyOp20
 70
     1
102
RTVSPropertyOp21
 70
     1
102
RTVSPropertyOp22
 70
     1
102
RTVSPropertyOp23
 70
     1
102
RTVSPropertyOp24
 70
     1
102
RTVSPropertyOp25
 70
     1
102
RTVSPropertyOp26
 70
     1
102
RTVSPropertyOp27
 70
     1
102
RTVSPropertyOp28
 70
     1
102
RTVSPropertyOp29
 70
     1
102
RTVSPropertyOp30
 70
     1
102
RTVSPropertyOp31
 70
     1
102
RTVSPropertyOp32
 70
     1
102
RTVSPropertyOp33
 70
     1
102
RTVSPropertyOp34
 70
     1
102
RTVSPropertyOp35
 70
     1
102
RTVSPropertyOp36
 70
     1
102
RTVSPropertyOp37
 70
     1
102
RTVSPropertyOp38
 70
     1
102
RTVSPropertyOp39
 70
     1
102
RTVSPropertyOp40
 70
     1
102
RTVSPropertyOp41
 70
     1
102
RTVSPropertyOp42
 70
     1
102
RTVSPropertyOp43
 70
     1
102
RTVSPropertyOp44
 70
     1
102
RTVSPropertyOp45
 70
     1
102
RTVSPropertyOp46
 70
     1
102
RTVSPropertyOp47
 70
     1
102
RTVSPropertyOp48
 70
     1
102
RTVSPropertyOp49
 70
     1
102
RTVSPropertyOp50
 70
     1
102
RTVSPropertyOp51
 70
     0
102
RTVSPropertyOp52
 70
     0
102
RTVSPropertyOp53
 70
     1
102
RTVSPropertyOp54
 70
     1
102
RTVSPropertyOp55
 70
     1
102
RTVSPropertyOp56
 70
     1
102
RTVSPropertyOp57
 70
     1
102
RTVSPost2010Prop28
280
     0
102
RTVSPost2010PropOp28
 70
     1
102
RTVSPost2010Prop29
280
     1
102
RTVSPost2010PropOp29
 70
     1
102
RTVSPost2010Prop30
280
     1
102
RTVSPost2010PropOp30
 70
     1
102
RTVSPost2010Prop31
280
     0
102
RTVSPost2010PropOp31
 70
     1
102
RTVSPost2010Prop32
280
     0
102
RTVSPost2010PropOp32
 70
     1
102
RTVSPost2010Prop33
280
     0
102
RTVSPost2010PropOp33
 70
     1
102
RTVSPost2010Prop34
280
     0
102
RTVSPost2010PropOp34
 70
     1
102
RTVSPost2010Prop35
280
     0
102
RTVSPost2010PropOp35
 70
     1
102
RTVSPost2010Prop36
280
     0
102
RTVSPost2010PropOp36
 70
     1
102
RTVSPost2010Prop37
 90
       50
102
RTVSPost2010PropOp37
 70
     1
102
RTVSPost2010Prop38
140
0.0
102
RTVSPost2010PropOp38
 70
     1
102
RTVSPost2010Prop39
140
1.0
102
RTVSPost2010PropOp39
 70
     1
102
RTVSPost2010Prop40
 90
        0
102
RTVSPost2010PropOp40
 70
     1
102
RTVSPost2010Prop41ColorIndex
 90
       18
102
RTVSPost2010Prop41ColorRGB
 90
        0
102
RTVSPost2010PropOp41
 70
     1
102
RTVSPost2010Prop42
 90
       50
102
RTVSPost2010PropOp42
 70
     1
102
RTVSPost2010Prop43
 90
        3
102
RTVSPost2010PropOp43
 70
     1
102
RTVSPost2010Prop44ColorIndex
 90
        5
102
RTVSPost2010Prop44ColorRGB
 90
      255
102
RTVSPost2010PropOp44
 70
     1
102
RTVSPost2010Prop45
280
     0
102
RTVSPost2010PropOp45
 70
     1
102
RTVSPost2010Prop46
 90
       50
102
RTVSPost2010PropOp46
 70
     1
102
RTVSPost2010Prop47
 90
       50
102
RTVSPost2010PropOp47
 70
     1
102
RTVSPost2010Prop48
 90
       50
102
RTVSPost2010PropOp48
 70
     1
102
RTVSPost2010Prop49
280
     0
102
RTVSPost2010PropOp49
 70
     1
102
RTVSPost2010Prop50
 90
       50
102
RTVSPost2010PropOp50
 70
     1
102
RTVSPost2010Prop51ColorIndex
 90
      256
102
RTVSPost2010Prop51ColorRGB
 90
-16777216
102
RTVSPost2010PropOp51
 70
     0
102
RTVSPost2010Prop52
140
1.0
102
RTVSPost2010PropOp52
 70
     0
102
RTVSPost2010Prop53
 90
        2
102
RTVSPost2010PropOp53
 70
     1
102
RTVSPost2010Prop54
  1
strokes_ogs.tif
102
RTVSPost2010PropOp54
 70
     1
102
RTVSPost2010Prop55
280
     0
102
RTVSPost2010PropOp55
 70
     1
102
RTVSPost2010Prop56
140
1.0
102
RTVSPost2010PropOp56
 70
     1
102
RTVSPost2010Prop57
140
1.0
102
RTVSPost2010PropOp57
 70
     1
  0
XRECORD
  5
3F1
102
{ACAD_REACTORS
330
3F0
102
}
330
3F0
100
AcDbXrecord
280
     1
102
RTVSPropertyOp0
 70
     1
102
RTVSPropertyOp1
 70
     1
102
RTVSPropertyOp2
 70
     1
102
RTVSPropertyOp3
 70
     1
102
RTVSPropertyOp4
 70
     1
102
RTVSPropertyOp5
 70
     1
102
RTVSPropertyOp6
 70
     1
102
RTVSPropertyOp7
 70
     1
102
RTVSPropertyOp8
 70
     1
102
RTVSPropertyOp9
 70
     1
102
RTVSPropertyOp10
 70
     1
102
RTVSPropertyOp11
 70
     1
102
RTVSPropertyOp12
 70
     1
102
RTVSPropertyOp13
 70
     1
102
RTVSPropertyOp14
 70
     1
102
RTVSPropertyOp15
 70
     1
102
RTVSPropertyOp16
 70
     1
102
RTVSPropertyOp17
 70
     1
102
RTVSPropertyOp18
 70
     1
102
RTVSPropertyOp19
 70
     1
102
RTVSPropertyOp20
 70
     1
102
RTVSPropertyOp21
 70
     1
102
RTVSPropertyOp22
 70
     1
102
RTVSPropertyOp23
 70
     1
102
RTVSPropertyOp24
 70
     1
102
RTVSPropertyOp25
 70
     1
102
RTVSPropertyOp26
 70
     1
102
RTVSPropertyOp27
 70
     1
102
RTVSPropertyOp28
 70
     1
102
RTVSPropertyOp29
 70
     1
102
RTVSPropertyOp30
 70
     1
102
RTVSPropertyOp31
 70
     1
102
RTVSPropertyOp32
 70
     1
102
RTVSPropertyOp33
 70
     1
102
RTVSPropertyOp34
 70
     1
102
RTVSPropertyOp35
 70
     1
102
RTVSPropertyOp36
 70
     1
102
RTVSPropertyOp37
 70
     1
102
RTVSPropertyOp38
 70
     1
102
RTVSPropertyOp39
 70
     1
102
RTVSPropertyOp40
 70
     1
102
RTVSPropertyOp41
 70
     1
102
RTVSPropertyOp42
 70
     1
102
RTVSPropertyOp43
 70
     1
102
RTVSPropertyOp44
 70
     1
102
RTVSPropertyOp45
 70
     1
102
RTVSPropertyOp46
 70
     1
102
RTVSPropertyOp47
 70
     1
102
RTVSPropertyOp48
 70
     1
102
RTVSPropertyOp49
 70
     1
102
RTVSPropertyOp50
 70
     1
102
RTVSPropertyOp51
 70
     0
102
RTVSPropertyOp52
 70
     0
102
RTVSPropertyOp53
 70
     1
102
RTVSPropertyOp54
 70
     1
102
RTVSPropertyOp55
 70
     1
102
RTVSPropertyOp56
 70
     1
102
RTVSPropertyOp57
 70
     1
102
RTVSPost2010Prop28
280
     0
102
RTVSPost2010PropOp28
 70
     1
102
RTVSPost2010Prop29
280
     1
102
RTVSPost2010PropOp29
 70
     1
102
RTVSPost2010Prop30
280
     1
102
RTVSPost2010PropOp30
 70
     1
102
RTVSPost2010Prop31
280
     0
102
RTVSPost2010PropOp31
 70
     1
102
RTVSPost2010Prop32
280
     0
102
RTVSPost2010PropOp32
 70
     1
102
RTVSPost2010Prop33
280
     0
102
RTVSPost2010PropOp33
 70
     1
102
RTVSPost2010Prop34
280
     0
102
RTVSPost2010PropOp34
 70
     1
102
RTVSPost2010Prop35
280
     0
102
RTVSPost2010PropOp35
 70
     1
102
RTVSPost2010Prop36
280
     0
102
RTVSPost2010PropOp36
 70
     1
102
RTVSPost2010Prop37
 90
       50
102
RTVSPost2010PropOp37
 70
     1
102
RTVSPost2010Prop38
140
0.0
102
RTVSPost2010PropOp38
 70
     1
102
RTVSPost2010Prop39
140
1.0
102
RTVSPost2010PropOp39
 70
     1
102
RTVSPost2010Prop40
 90
        0
102
RTVSPost2010PropOp40
 70
     1
102
RTVSPost2010Prop41ColorIndex
 90
       18
102
RTVSPost2010Prop41ColorRGB
 90
        0
102
RTVSPost2010PropOp41
 70
     1
102
RTVSPost2010Prop42
 90
       50
102
RTVSPost2010PropOp42
 70
     1
102
RTVSPost2010Prop43
 90
        3
102
RTVSPost2010PropOp43
 70
     1
102
RTVSPost2010Prop44ColorIndex
 90
        5
102
RTVSPost2010Prop44ColorRGB
 90
      255
102
RTVSPost2010PropOp44
 70
     1
102
RTVSPost2010Prop45
280
     0
102
RTVSPost2010PropOp45
 70
     1
102
RTVSPost2010Prop46
 90
       50
102
RTVSPost2010PropOp46
 70
     1
102
RTVSPost2010Prop47
 90
       50
102
RTVSPost2010PropOp47
 70
     1
102
RTVSPost2010Prop48
 90
       50
102
RTVSPost2010PropOp48
 70
     1
102
RTVSPost2010Prop49
280
     0
102
RTVSPost2010PropOp49
 70
     1
102
RTVSPost2010Prop50
 90
       50
102
RTVSPost2010PropOp50
 70
     1
102
RTVSPost2010Prop51ColorIndex
 90
      256
102
RTVSPost2010Prop51ColorRGB
 90
-16777216
102
RTVSPost2010PropOp51
 70
     0
102
RTVSPost2010Prop52
140
1.0
102
RTVSPost2010PropOp52
 70
     0
102
RTVSPost2010Prop53
 90
        2
102
RTVSPost2010PropOp53
 70
     1
102
RTVSPost2010Prop54
  1
strokes_ogs.tif
102
RTVSPost2010PropOp54
 70
     1
102
RTVSPost2010Prop55
280
     0
102
RTVSPost2010PropOp55
 70
     1
102
RTVSPost2010Prop56
140
1.0
102
RTVSPost2010PropOp56
 70
     1
102
RTVSPost2010Prop57
140
1.0
102
RTVSPost2010PropOp57
 70
     1
  0
XRECORD
  5
3E5
102
{ACAD_REACTORS
330
3E4
102
}
330
3E4
100
AcDbXrecord
280
     1
102
RTVSPropertyOp0
 70
     1
102
RTVSPropertyOp1
 70
     1
102
RTVSPropertyOp2
 70
     1
102
RTVSPropertyOp3
 70
     1
102
RTVSPropertyOp4
 70
     1
102
RTVSPropertyOp5
 70
     1
102
RTVSPropertyOp6
 70
     1
102
RTVSPropertyOp7
 70
     1
102
RTVSPropertyOp8
 70
     1
102
RTVSPropertyOp9
 70
     1
102
RTVSPropertyOp10
 70
     1
102
RTVSPropertyOp11
 70
     1
102
RTVSPropertyOp12
 70
     1
102
RTVSPropertyOp13
 70
     1
102
RTVSPropertyOp14
 70
     1
102
RTVSPropertyOp15
 70
     1
102
RTVSPropertyOp16
 70
     1
102
RTVSPropertyOp17
 70
     1
102
RTVSPropertyOp18
 70
     1
102
RTVSPropertyOp19
 70
     1
102
RTVSPropertyOp20
 70
     1
102
RTVSPropertyOp21
 70
     1
102
RTVSPropertyOp22
 70
     1
102
RTVSPropertyOp23
 70
     1
102
RTVSPropertyOp24
 70
     1
102
RTVSPropertyOp25
 70
     1
102
RTVSPropertyOp26
 70
     1
102
RTVSPropertyOp27
 70
     1
102
RTVSPropertyOp28
 70
     1
102
RTVSPropertyOp29
 70
     1
102
RTVSPropertyOp30
 70
     1
102
RTVSPropertyOp31
 70
     1
102
RTVSPropertyOp32
 70
     1
102
RTVSPropertyOp33
 70
     1
102
RTVSPropertyOp34
 70
     1
102
RTVSPropertyOp35
 70
     1
102
RTVSPropertyOp36
 70
     1
102
RTVSPropertyOp37
 70
     1
102
RTVSPropertyOp38
 70
     1
102
RTVSPropertyOp39
 70
     1
102
RTVSPropertyOp40
 70
     1
102
RTVSPropertyOp41
 70
     1
102
RTVSPropertyOp42
 70
     1
102
RTVSPropertyOp43
 70
     1
102
RTVSPropertyOp44
 70
     1
102
RTVSPropertyOp45
 70
     1
102
RTVSPropertyOp46
 70
     1
102
RTVSPropertyOp47
 70
     1
102
RTVSPropertyOp48
 70
     1
102
RTVSPropertyOp49
 70
     1
102
RTVSPropertyOp50
 70
     1
102
RTVSPropertyOp51
 70
     0
102
RTVSPropertyOp52
 70
     0
102
RTVSPropertyOp53
 70
     1
102
RTVSPropertyOp54
 70
     1
102
RTVSPropertyOp55
 70
     1
102
RTVSPropertyOp56
 70
     1
102
RTVSPropertyOp57
 70
     1
102
RTVSPost2010Prop28
280
     0
102
RTVSPost2010PropOp28
 70
     1
102
RTVSPost2010Prop29
280
     1
102
RTVSPost2010PropOp29
 70
     1
102
RTVSPost2010Prop30
280
     1
102
RTVSPost2010PropOp30
 70
     1
102
RTVSPost2010Prop31
280
     0
102
RTVSPost2010PropOp31
 70
     1
102
RTVSPost2010Prop32
280
     0
102
RTVSPost2010PropOp32
 70
     1
102
RTVSPost2010Prop33
280
     0
102
RTVSPost2010PropOp33
 70
     1
102
RTVSPost2010Prop34
280
     0
102
RTVSPost2010PropOp34
 70
     1
102
RTVSPost2010Prop35
280
     0
102
RTVSPost2010PropOp35
 70
     1
102
RTVSPost2010Prop36
280
     0
102
RTVSPost2010PropOp36
 70
     1
102
RTVSPost2010Prop37
 90
       50
102
RTVSPost2010PropOp37
 70
     1
102
RTVSPost2010Prop38
140
0.0
102
RTVSPost2010PropOp38
 70
     1
102
RTVSPost2010Prop39
140
1.0
102
RTVSPost2010PropOp39
 70
     1
102
RTVSPost2010Prop40
 90
        0
102
RTVSPost2010PropOp40
 70
     1
102
RTVSPost2010Prop41ColorIndex
 90
       18
102
RTVSPost2010Prop41ColorRGB
 90
        0
102
RTVSPost2010PropOp41
 70
     1
102
RTVSPost2010Prop42
 90
       50
102
RTVSPost2010PropOp42
 70
     1
102
RTVSPost2010Prop43
 90
        3
102
RTVSPost2010PropOp43
 70
     1
102
RTVSPost2010Prop44ColorIndex
 90
        5
102
RTVSPost2010Prop44ColorRGB
 90
      255
102
RTVSPost2010PropOp44
 70
     1
102
RTVSPost2010Prop45
280
     0
102
RTVSPost2010PropOp45
 70
     1
102
RTVSPost2010Prop46
 90
       50
102
RTVSPost2010PropOp46
 70
     1
102
RTVSPost2010Prop47
 90
       50
102
RTVSPost2010PropOp47
 70
     1
102
RTVSPost2010Prop48
 90
       50
102
RTVSPost2010PropOp48
 70
     1
102
RTVSPost2010Prop49
280
     0
102
RTVSPost2010PropOp49
 70
     1
102
RTVSPost2010Prop50
 90
       50
102
RTVSPost2010PropOp50
 70
     1
102
RTVSPost2010Prop51ColorIndex
 90
      256
102
RTVSPost2010Prop51ColorRGB
 90
-16777216
102
RTVSPost2010PropOp51
 70
     0
102
RTVSPost2010Prop52
140
1.0
102
RTVSPost2010PropOp52
 70
     0
102
RTVSPost2010Prop53
 90
        2
102
RTVSPost2010PropOp53
 70
     1
102
RTVSPost2010Prop54
  1
strokes_ogs.tif
102
RTVSPost2010PropOp54
 70
     1
102
RTVSPost2010Prop55
280
     0
102
RTVSPost2010PropOp55
 70
     1
102
RTVSPost2010Prop56
140
1.0
102
RTVSPost2010PropOp56
 70
     1
102
RTVSPost2010Prop57
140
1.0
102
RTVSPost2010PropOp57
 70
     1
  0
XRECORD
  5
3E7
102
{ACAD_REACTORS
330
3E6
102
}
330
3E6
100
AcDbXrecord
280
     1
102
RTVSPropertyOp0
 70
     1
102
RTVSPropertyOp1
 70
     1
102
RTVSPropertyOp2
 70
     1
102
RTVSPropertyOp3
 70
     1
102
RTVSPropertyOp4
 70
     1
102
RTVSPropertyOp5
 70
     1
102
RTVSPropertyOp6
 70
     1
102
RTVSPropertyOp7
 70
     1
102
RTVSPropertyOp8
 70
     1
102
RTVSPropertyOp9
 70
     1
102
RTVSPropertyOp10
 70
     1
102
RTVSPropertyOp11
 70
     1
102
RTVSPropertyOp12
 70
     1
102
RTVSPropertyOp13
 70
     1
102
RTVSPropertyOp14
 70
     1
102
RTVSPropertyOp15
 70
     1
102
RTVSPropertyOp16
 70
     1
102
RTVSPropertyOp17
 70
     1
102
RTVSPropertyOp18
 70
     1
102
RTVSPropertyOp19
 70
     1
102
RTVSPropertyOp20
 70
     1
102
RTVSPropertyOp21
 70
     1
102
RTVSPropertyOp22
 70
     1
102
RTVSPropertyOp23
 70
     1
102
RTVSPropertyOp24
 70
     1
102
RTVSPropertyOp25
 70
     1
102
RTVSPropertyOp26
 70
     1
102
RTVSPropertyOp27
 70
     1
102
RTVSPropertyOp28
 70
     1
102
RTVSPropertyOp29
 70
     1
102
RTVSPropertyOp30
 70
     1
102
RTVSPropertyOp31
 70
     1
102
RTVSPropertyOp32
 70
     1
102
RTVSPropertyOp33
 70
     1
102
RTVSPropertyOp34
 70
     1
102
RTVSPropertyOp35
 70
     1
102
RTVSPropertyOp36
 70
     1
102
RTVSPropertyOp37
 70
     1
102
RTVSPropertyOp38
 70
     1
102
RTVSPropertyOp39
 70
     1
102
RTVSPropertyOp40
 70
     1
102
RTVSPropertyOp41
 70
     1
102
RTVSPropertyOp42
 70
     1
102
RTVSPropertyOp43
 70
     1
102
RTVSPropertyOp44
 70
     1
102
RTVSPropertyOp45
 70
     1
102
RTVSPropertyOp46
 70
     1
102
RTVSPropertyOp47
 70
     1
102
RTVSPropertyOp48
 70
     1
102
RTVSPropertyOp49
 70
     1
102
RTVSPropertyOp50
 70
     1
102
RTVSPropertyOp51
 70
     0
102
RTVSPropertyOp52
 70
     0
102
RTVSPropertyOp53
 70
     1
102
RTVSPropertyOp54
 70
     1
102
RTVSPropertyOp55
 70
     1
102
RTVSPropertyOp56
 70
     1
102
RTVSPropertyOp57
 70
     1
102
RTVSPost2010Prop28
280
     0
102
RTVSPost2010PropOp28
 70
     1
102
RTVSPost2010Prop29
280
     1
102
RTVSPost2010PropOp29
 70
     1
102
RTVSPost2010Prop30
280
     1
102
RTVSPost2010PropOp30
 70
     1
102
RTVSPost2010Prop31
280
     0
102
RTVSPost2010PropOp31
 70
     1
102
RTVSPost2010Prop32
280
     0
102
RTVSPost2010PropOp32
 70
     1
102
RTVSPost2010Prop33
280
     0
102
RTVSPost2010PropOp33
 70
     1
102
RTVSPost2010Prop34
280
     0
102
RTVSPost2010PropOp34
 70
     1
102
RTVSPost2010Prop35
280
     0
102
RTVSPost2010PropOp35
 70
     1
102
RTVSPost2010Prop36
280
     0
102
RTVSPost2010PropOp36
 70
     1
102
RTVSPost2010Prop37
 90
       50
102
RTVSPost2010PropOp37
 70
     1
102
RTVSPost2010Prop38
140
0.0
102
RTVSPost2010PropOp38
 70
     1
102
RTVSPost2010Prop39
140
1.0
102
RTVSPost2010PropOp39
 70
     1
102
RTVSPost2010Prop40
 90
        0
102
RTVSPost2010PropOp40
 70
     1
102
RTVSPost2010Prop41ColorIndex
 90
       18
102
RTVSPost2010Prop41ColorRGB
 90
        0
102
RTVSPost2010PropOp41
 70
     1
102
RTVSPost2010Prop42
 90
       50
102
RTVSPost2010PropOp42
 70
     1
102
RTVSPost2010Prop43
 90
        3
102
RTVSPost2010PropOp43
 70
     1
102
RTVSPost2010Prop44ColorIndex
 90
        5
102
RTVSPost2010Prop44ColorRGB
 90
      255
102
RTVSPost2010PropOp44
 70
     1
102
RTVSPost2010Prop45
280
     0
102
RTVSPost2010PropOp45
 70
     1
102
RTVSPost2010Prop46
 90
       50
102
RTVSPost2010PropOp46
 70
     1
102
RTVSPost2010Prop47
 90
       50
102
RTVSPost2010PropOp47
 70
     1
102
RTVSPost2010Prop48
 90
       50
102
RTVSPost2010PropOp48
 70
     1
102
RTVSPost2010Prop49
280
     0
102
RTVSPost2010PropOp49
 70
     1
102
RTVSPost2010Prop50
 90
       50
102
RTVSPost2010PropOp50
 70
     1
102
RTVSPost2010Prop51ColorIndex
 90
      256
102
RTVSPost2010Prop51ColorRGB
 90
-16777216
102
RTVSPost2010PropOp51
 70
     0
102
RTVSPost2010Prop52
140
1.0
102
RTVSPost2010PropOp52
 70
     0
102
RTVSPost2010Prop53
 90
        2
102
RTVSPost2010PropOp53
 70
     1
102
RTVSPost2010Prop54
  1
strokes_ogs.tif
102
RTVSPost2010PropOp54
 70
     1
102
RTVSPost2010Prop55
280
     0
102
RTVSPost2010PropOp55
 70
     1
102
RTVSPost2010Prop56
140
1.0
102
RTVSPost2010PropOp56
 70
     1
102
RTVSPost2010Prop57
140
1.0
102
RTVSPost2010PropOp57
 70
     1
  0
XRECORD
  5
3F7
102
{ACAD_REACTORS
330
3F6
102
}
330
3F6
100
AcDbXrecord
280
     1
102
RTVSPropertyOp0
 70
     0
102
RTVSPropertyOp1
 70
     0
102
RTVSPropertyOp2
 70
     0
102
RTVSPropertyOp3
 70
     0
102
RTVSPropertyOp4
 70
     0
102
RTVSPropertyOp5
 70
     0
102
RTVSPropertyOp6
 70
     0
102
RTVSPropertyOp7
 70
     0
102
RTVSPropertyOp8
 70
     0
102
RTVSPropertyOp9
 70
     0
102
RTVSPropertyOp10
 70
     0
102
RTVSPropertyOp11
 70
     0
102
RTVSPropertyOp12
 70
     0
102
RTVSPropertyOp13
 70
     0
102
RTVSPropertyOp14
 70
     2
102
RTVSPropertyOp15
 70
     0
102
RTVSPropertyOp16
 70
     0
102
RTVSPropertyOp17
 70
     0
102
RTVSPropertyOp18
 70
     0
102
RTVSPropertyOp19
 70
     0
102
RTVSPropertyOp20
 70
     0
102
RTVSPropertyOp21
 70
     0
102
RTVSPropertyOp22
 70
     0
102
RTVSPropertyOp23
 70
     0
102
RTVSPropertyOp24
 70
     0
102
RTVSPropertyOp25
 70
     0
102
RTVSPropertyOp26
 70
     0
102
RTVSPropertyOp27
 70
     0
102
RTVSPropertyOp28
 70
     0
102
RTVSPropertyOp29
 70
     0
102
RTVSPropertyOp30
 70
     0
102
RTVSPropertyOp31
 70
     0
102
RTVSPropertyOp32
 70
     0
102
RTVSPropertyOp33
 70
     0
102
RTVSPropertyOp34
 70
     0
102
RTVSPropertyOp35
 70
     0
102
RTVSPropertyOp36
 70
     0
102
RTVSPropertyOp37
 70
     0
102
RTVSPropertyOp38
 70
     0
102
RTVSPropertyOp39
 70
     0
102
RTVSPropertyOp40
 70
     0
102
RTVSPropertyOp41
 70
     0
102
RTVSPropertyOp42
 70
     0
102
RTVSPropertyOp43
 70
     0
102
RTVSPropertyOp44
 70
     0
102
RTVSPropertyOp45
 70
     0
102
RTVSPropertyOp46
 70
     0
102
RTVSPropertyOp47
 70
     0
102
RTVSPropertyOp48
 70
     0
102
RTVSPropertyOp49
 70
     0
102
RTVSPropertyOp50
 70
     0
102
RTVSPropertyOp51
 70
     0
102
RTVSPropertyOp52
 70
     0
102
RTVSPropertyOp53
 70
     0
102
RTVSPropertyOp54
 70
     0
102
RTVSPropertyOp55
 70
     0
102
RTVSPropertyOp56
 70
     0
102
RTVSPropertyOp57
 70
     0
102
RTVSPost2010Prop28
280
     0
102
RTVSPost2010PropOp28
 70
     0
102
RTVSPost2010Prop29
280
     1
102
RTVSPost2010PropOp29
 70
     0
102
RTVSPost2010Prop30
280
     1
102
RTVSPost2010PropOp30
 70
     0
102
RTVSPost2010Prop31
280
     0
102
RTVSPost2010PropOp31
 70
     0
102
RTVSPost2010Prop32
280
     0
102
RTVSPost2010PropOp32
 70
     0
102
RTVSPost2010Prop33
280
     0
102
RTVSPost2010PropOp33
 70
     0
102
RTVSPost2010Prop34
280
     0
102
RTVSPost2010PropOp34
 70
     0
102
RTVSPost2010Prop35
280
     0
102
RTVSPost2010PropOp35
 70
     0
102
RTVSPost2010Prop36
280
     0
102
RTVSPost2010PropOp36
 70
     0
102
RTVSPost2010Prop37
 90
       50
102
RTVSPost2010PropOp37
 70
     0
102
RTVSPost2010Prop38
140
0.0
102
RTVSPost2010PropOp38
 70
     0
102
RTVSPost2010Prop39
140
1.0
102
RTVSPost2010PropOp39
 70
     0
102
RTVSPost2010Prop40
 90
        0
102
RTVSPost2010PropOp40
 70
     0
102
RTVSPost2010Prop41ColorIndex
 90
       18
102
RTVSPost2010Prop41ColorRGB
 90
        0
102
RTVSPost2010PropOp41
 70
     0
102
RTVSPost2010Prop42
 90
       50
102
RTVSPost2010PropOp42
 70
     0
102
RTVSPost2010Prop43
 90
        3
102
RTVSPost2010PropOp43
 70
     0
102
RTVSPost2010Prop44ColorIndex
 90
        5
102
RTVSPost2010Prop44ColorRGB
 90
      255
102
RTVSPost2010PropOp44
 70
     0
102
RTVSPost2010Prop45
280
     0
102
RTVSPost2010PropOp45
 70
     0
102
RTVSPost2010Prop46
 90
       50
102
RTVSPost2010PropOp46
 70
     0
102
RTVSPost2010Prop47
 90
       50
102
RTVSPost2010PropOp47
 70
     0
102
RTVSPost2010Prop48
 90
       50
102
RTVSPost2010PropOp48
 70
     0
102
RTVSPost2010Prop49
280
     0
102
RTVSPost2010PropOp49
 70
     0
102
RTVSPost2010Prop50
 90
       50
102
RTVSPost2010PropOp50
 70
     0
102
RTVSPost2010Prop51ColorIndex
 90
      256
102
RTVSPost2010Prop51ColorRGB
 90
-16777216
102
RTVSPost2010PropOp51
 70
     0
102
RTVSPost2010Prop52
140
1.0
102
RTVSPost2010PropOp52
 70
     0
102
RTVSPost2010Prop53
 90
        2
102
RTVSPost2010PropOp53
 70
     0
102
RTVSPost2010Prop54
  1
strokes_ogs.tif
102
RTVSPost2010PropOp54
 70
     0
102
RTVSPost2010Prop55
280
     0
102
RTVSPost2010PropOp55
 70
     0
102
RTVSPost2010Prop56
140
1.0
102
RTVSPost2010PropOp56
 70
     0
102
RTVSPost2010Prop57
140
1.0
102
RTVSPost2010PropOp57
 70
     0
  0
XRECORD
  5
3EF
102
{ACAD_REACTORS
330
3EE
102
}
330
3EE
100
AcDbXrecord
280
     1
102
RTVSPropertyOp0
 70
     1
102
RTVSPropertyOp1
 70
     1
102
RTVSPropertyOp2
 70
     1
102
RTVSPropertyOp3
 70
     1
102
RTVSPropertyOp4
 70
     1
102
RTVSPropertyOp5
 70
     1
102
RTVSPropertyOp6
 70
     1
102
RTVSPropertyOp7
 70
     1
102
RTVSPropertyOp8
 70
     1
102
RTVSPropertyOp9
 70
     1
102
RTVSPropertyOp10
 70
     1
102
RTVSPropertyOp11
 70
     1
102
RTVSPropertyOp12
 70
     1
102
RTVSPropertyOp13
 70
     1
102
RTVSPropertyOp14
 70
     1
102
RTVSPropertyOp15
 70
     1
102
RTVSPropertyOp16
 70
     1
102
RTVSPropertyOp17
 70
     1
102
RTVSPropertyOp18
 70
     1
102
RTVSPropertyOp19
 70
     1
102
RTVSPropertyOp20
 70
     1
102
RTVSPropertyOp21
 70
     1
102
RTVSPropertyOp22
 70
     1
102
RTVSPropertyOp23
 70
     1
102
RTVSPropertyOp24
 70
     1
102
RTVSPropertyOp25
 70
     1
102
RTVSPropertyOp26
 70
     1
102
RTVSPropertyOp27
 70
     1
102
RTVSPropertyOp28
 70
     1
102
RTVSPropertyOp29
 70
     1
102
RTVSPropertyOp30
 70
     1
102
RTVSPropertyOp31
 70
     1
102
RTVSPropertyOp32
 70
     1
102
RTVSPropertyOp33
 70
     1
102
RTVSPropertyOp34
 70
     1
102
RTVSPropertyOp35
 70
     1
102
RTVSPropertyOp36
 70
     1
102
RTVSPropertyOp37
 70
     1
102
RTVSPropertyOp38
 70
     1
102
RTVSPropertyOp39
 70
     1
102
RTVSPropertyOp40
 70
     1
102
RTVSPropertyOp41
 70
     1
102
RTVSPropertyOp42
 70
     1
102
RTVSPropertyOp43
 70
     1
102
RTVSPropertyOp44
 70
     1
102
RTVSPropertyOp45
 70
     1
102
RTVSPropertyOp46
 70
     1
102
RTVSPropertyOp47
 70
     1
102
RTVSPropertyOp48
 70
     1
102
RTVSPropertyOp49
 70
     1
102
RTVSPropertyOp50
 70
     1
102
RTVSPropertyOp51
 70
     0
102
RTVSPropertyOp52
 70
     0
102
RTVSPropertyOp53
 70
     1
102
RTVSPropertyOp54
 70
     1
102
RTVSPropertyOp55
 70
     1
102
RTVSPropertyOp56
 70
     1
102
RTVSPropertyOp57
 70
     1
102
RTVSPost2010Prop28
280
     0
102
RTVSPost2010PropOp28
 70
     1
102
RTVSPost2010Prop29
280
     1
102
RTVSPost2010PropOp29
 70
     1
102
RTVSPost2010Prop30
280
     1
102
RTVSPost2010PropOp30
 70
     1
102
RTVSPost2010Prop31
280
     0
102
RTVSPost2010PropOp31
 70
     1
102
RTVSPost2010Prop32
280
     0
102
RTVSPost2010PropOp32
 70
     1
102
RTVSPost2010Prop33
280
     0
102
RTVSPost2010PropOp33
 70
     1
102
RTVSPost2010Prop34
280
     0
102
RTVSPost2010PropOp34
 70
     1
102
RTVSPost2010Prop35
280
     0
102
RTVSPost2010PropOp35
 70
     1
102
RTVSPost2010Prop36
280
     0
102
RTVSPost2010PropOp36
 70
     1
102
RTVSPost2010Prop37
 90
       50
102
RTVSPost2010PropOp37
 70
     1
102
RTVSPost2010Prop38
140
0.0
102
RTVSPost2010PropOp38
 70
     1
102
RTVSPost2010Prop39
140
1.0
102
RTVSPost2010PropOp39
 70
     1
102
RTVSPost2010Prop40
 90
        0
102
RTVSPost2010PropOp40
 70
     1
102
RTVSPost2010Prop41ColorIndex
 90
       18
102
RTVSPost2010Prop41ColorRGB
 90
        0
102
RTVSPost2010PropOp41
 70
     1
102
RTVSPost2010Prop42
 90
       50
102
RTVSPost2010PropOp42
 70
     1
102
RTVSPost2010Prop43
 90
        3
102
RTVSPost2010PropOp43
 70
     1
102
RTVSPost2010Prop44ColorIndex
 90
        5
102
RTVSPost2010Prop44ColorRGB
 90
      255
102
RTVSPost2010PropOp44
 70
     1
102
RTVSPost2010Prop45
280
     0
102
RTVSPost2010PropOp45
 70
     1
102
RTVSPost2010Prop46
 90
       50
102
RTVSPost2010PropOp46
 70
     1
102
RTVSPost2010Prop47
 90
       50
102
RTVSPost2010PropOp47
 70
     1
102
RTVSPost2010Prop48
 90
       50
102
RTVSPost2010PropOp48
 70
     1
102
RTVSPost2010Prop49
280
     0
102
RTVSPost2010PropOp49
 70
     1
102
RTVSPost2010Prop50
 90
       50
102
RTVSPost2010PropOp50
 70
     1
102
RTVSPost2010Prop51ColorIndex
 90
      256
102
RTVSPost2010Prop51ColorRGB
 90
-16777216
102
RTVSPost2010PropOp51
 70
     0
102
RTVSPost2010Prop52
140
1.0
102
RTVSPost2010PropOp52
 70
     0
102
RTVSPost2010Prop53
 90
        2
102
RTVSPost2010PropOp53
 70
     1
102
RTVSPost2010Prop54
  1
strokes_ogs.tif
102
RTVSPost2010PropOp54
 70
     1
102
RTVSPost2010Prop55
280
     0
102
RTVSPost2010PropOp55
 70
     1
102
RTVSPost2010Prop56
140
1.0
102
RTVSPost2010PropOp56
 70
     1
102
RTVSPost2010Prop57
140
1.0
102
RTVSPost2010PropOp57
 70
     1
  0
XRECORD
  5
3D3
102
{ACAD_REACTORS
330
3D2
102
}
330
3D2
100
AcDbXrecord
280
     1
102
RTVSPropertyOp0
 70
     1
102
RTVSPropertyOp1
 70
     1
102
RTVSPropertyOp2
 70
     1
102
RTVSPropertyOp3
 70
     1
102
RTVSPropertyOp4
 70
     1
102
RTVSPropertyOp5
 70
     1
102
RTVSPropertyOp6
 70
     1
102
RTVSPropertyOp7
 70
     1
102
RTVSPropertyOp8
 70
     1
102
RTVSPropertyOp9
 70
     1
102
RTVSPropertyOp10
 70
     1
102
RTVSPropertyOp11
 70
     1
102
RTVSPropertyOp12
 70
     1
102
RTVSPropertyOp13
 70
     1
102
RTVSPropertyOp14
 70
     1
102
RTVSPropertyOp15
 70
     1
102
RTVSPropertyOp16
 70
     1
102
RTVSPropertyOp17
 70
     1
102
RTVSPropertyOp18
 70
     1
102
RTVSPropertyOp19
 70
     1
102
RTVSPropertyOp20
 70
     1
102
RTVSPropertyOp21
 70
     1
102
RTVSPropertyOp22
 70
     1
102
RTVSPropertyOp23
 70
     1
102
RTVSPropertyOp24
 70
     1
102
RTVSPropertyOp25
 70
     1
102
RTVSPropertyOp26
 70
     1
102
RTVSPropertyOp27
 70
     1
102
RTVSPropertyOp28
 70
     1
102
RTVSPropertyOp29
 70
     1
102
RTVSPropertyOp30
 70
     1
102
RTVSPropertyOp31
 70
     1
102
RTVSPropertyOp32
 70
     1
102
RTVSPropertyOp33
 70
     1
102
RTVSPropertyOp34
 70
     1
102
RTVSPropertyOp35
 70
     1
102
RTVSPropertyOp36
 70
     1
102
RTVSPropertyOp37
 70
     1
102
RTVSPropertyOp38
 70
     1
102
RTVSPropertyOp39
 70
     1
102
RTVSPropertyOp40
 70
     1
102
RTVSPropertyOp41
 70
     1
102
RTVSPropertyOp42
 70
     1
102
RTVSPropertyOp43
 70
     1
102
RTVSPropertyOp44
 70
     1
102
RTVSPropertyOp45
 70
     1
102
RTVSPropertyOp46
 70
     1
102
RTVSPropertyOp47
 70
     1
102
RTVSPropertyOp48
 70
     1
102
RTVSPropertyOp49
 70
     1
102
RTVSPropertyOp50
 70
     1
102
RTVSPropertyOp51
 70
     0
102
RTVSPropertyOp52
 70
     0
102
RTVSPropertyOp53
 70
     1
102
RTVSPropertyOp54
 70
     1
102
RTVSPropertyOp55
 70
     1
102
RTVSPropertyOp56
 70
     1
102
RTVSPropertyOp57
 70
     1
102
RTVSPost2010Prop28
280
     0
102
RTVSPost2010PropOp28
 70
     1
102
RTVSPost2010Prop29
280
     1
102
RTVSPost2010PropOp29
 70
     1
102
RTVSPost2010Prop30
280
     1
102
RTVSPost2010PropOp30
 70
     1
102
RTVSPost2010Prop31
280
     0
102
RTVSPost2010PropOp31
 70
     1
102
RTVSPost2010Prop32
280
     0
102
RTVSPost2010PropOp32
 70
     1
102
RTVSPost2010Prop33
280
     0
102
RTVSPost2010PropOp33
 70
     1
102
RTVSPost2010Prop34
280
     0
102
RTVSPost2010PropOp34
 70
     1
102
RTVSPost2010Prop35
280
     0
102
RTVSPost2010PropOp35
 70
     1
102
RTVSPost2010Prop36
280
     0
102
RTVSPost2010PropOp36
 70
     1
102
RTVSPost2010Prop37
 90
       50
102
RTVSPost2010PropOp37
 70
     1
102
RTVSPost2010Prop38
140
0.0
102
RTVSPost2010PropOp38
 70
     1
102
RTVSPost2010Prop39
140
1.0
102
RTVSPost2010PropOp39
 70
     1
102
RTVSPost2010Prop40
 90
        0
102
RTVSPost2010PropOp40
 70
     1
102
RTVSPost2010Prop41ColorIndex
 90
       18
102
RTVSPost2010Prop41ColorRGB
 90
        0
102
RTVSPost2010PropOp41
 70
     1
102
RTVSPost2010Prop42
 90
       50
102
RTVSPost2010PropOp42
 70
     1
102
RTVSPost2010Prop43
 90
        3
102
RTVSPost2010PropOp43
 70
     1
102
RTVSPost2010Prop44ColorIndex
 90
        5
102
RTVSPost2010Prop44ColorRGB
 90
      255
102
RTVSPost2010PropOp44
 70
     1
102
RTVSPost2010Prop45
280
     0
102
RTVSPost2010PropOp45
 70
     1
102
RTVSPost2010Prop46
 90
       50
102
RTVSPost2010PropOp46
 70
     1
102
RTVSPost2010Prop47
 90
       50
102
RTVSPost2010PropOp47
 70
     1
102
RTVSPost2010Prop48
 90
       50
102
RTVSPost2010PropOp48
 70
     1
102
RTVSPost2010Prop49
280
     0
102
RTVSPost2010PropOp49
 70
     1
102
RTVSPost2010Prop50
 90
       50
102
RTVSPost2010PropOp50
 70
     1
102
RTVSPost2010Prop51ColorIndex
 90
      256
102
RTVSPost2010Prop51ColorRGB
 90
-16777216
102
RTVSPost2010PropOp51
 70
     0
102
RTVSPost2010Prop52
140
1.0
102
RTVSPost2010PropOp52
 70
     0
102
RTVSPost2010Prop53
 90
        2
102
RTVSPost2010PropOp53
 70
     1
102
RTVSPost2010Prop54
  1
strokes_ogs.tif
102
RTVSPost2010PropOp54
 70
     1
102
RTVSPost2010Prop55
280
     0
102
RTVSPost2010PropOp55
 70
     1
102
RTVSPost2010Prop56
140
1.0
102
RTVSPost2010PropOp56
 70
     1
102
RTVSPost2010Prop57
140
1.0
102
RTVSPost2010PropOp57
 70
     1
  0
XRECORD
  5
3D5
102
{ACAD_REACTORS
330
3D4
102
}
330
3D4
100
AcDbXrecord
280
     1
102
RTVSPropertyOp0
 70
     1
102
RTVSPropertyOp1
 70
     1
102
RTVSPropertyOp2
 70
     1
102
RTVSPropertyOp3
 70
     1
102
RTVSPropertyOp4
 70
     1
102
RTVSPropertyOp5
 70
     1
102
RTVSPropertyOp6
 70
     1
102
RTVSPropertyOp7
 70
     1
102
RTVSPropertyOp8
 70
     1
102
RTVSPropertyOp9
 70
     1
102
RTVSPropertyOp10
 70
     1
102
RTVSPropertyOp11
 70
     1
102
RTVSPropertyOp12
 70
     1
102
RTVSPropertyOp13
 70
     1
102
RTVSPropertyOp14
 70
     1
102
RTVSPropertyOp15
 70
     1
102
RTVSPropertyOp16
 70
     1
102
RTVSPropertyOp17
 70
     1
102
RTVSPropertyOp18
 70
     1
102
RTVSPropertyOp19
 70
     1
102
RTVSPropertyOp20
 70
     1
102
RTVSPropertyOp21
 70
     1
102
RTVSPropertyOp22
 70
     1
102
RTVSPropertyOp23
 70
     1
102
RTVSPropertyOp24
 70
     1
102
RTVSPropertyOp25
 70
     1
102
RTVSPropertyOp26
 70
     1
102
RTVSPropertyOp27
 70
     1
102
RTVSPropertyOp28
 70
     1
102
RTVSPropertyOp29
 70
     1
102
RTVSPropertyOp30
 70
     1
102
RTVSPropertyOp31
 70
     1
102
RTVSPropertyOp32
 70
     1
102
RTVSPropertyOp33
 70
     1
102
RTVSPropertyOp34
 70
     1
102
RTVSPropertyOp35
 70
     1
102
RTVSPropertyOp36
 70
     1
102
RTVSPropertyOp37
 70
     1
102
RTVSPropertyOp38
 70
     1
102
RTVSPropertyOp39
 70
     1
102
RTVSPropertyOp40
 70
     1
102
RTVSPropertyOp41
 70
     1
102
RTVSPropertyOp42
 70
     1
102
RTVSPropertyOp43
 70
     1
102
RTVSPropertyOp44
 70
     1
102
RTVSPropertyOp45
 70
     1
102
RTVSPropertyOp46
 70
     1
102
RTVSPropertyOp47
 70
     1
102
RTVSPropertyOp48
 70
     1
102
RTVSPropertyOp49
 70
     1
102
RTVSPropertyOp50
 70
     1
102
RTVSPropertyOp51
 70
     0
102
RTVSPropertyOp52
 70
     0
102
RTVSPropertyOp53
 70
     1
102
RTVSPropertyOp54
 70
     1
102
RTVSPropertyOp55
 70
     1
102
RTVSPropertyOp56
 70
     1
102
RTVSPropertyOp57
 70
     1
102
RTVSPost2010Prop28
280
     0
102
RTVSPost2010PropOp28
 70
     1
102
RTVSPost2010Prop29
280
     1
102
RTVSPost2010PropOp29
 70
     1
102
RTVSPost2010Prop30
280
     1
102
RTVSPost2010PropOp30
 70
     1
102
RTVSPost2010Prop31
280
     0
102
RTVSPost2010PropOp31
 70
     1
102
RTVSPost2010Prop32
280
     0
102
RTVSPost2010PropOp32
 70
     1
102
RTVSPost2010Prop33
280
     0
102
RTVSPost2010PropOp33
 70
     1
102
RTVSPost2010Prop34
280
     0
102
RTVSPost2010PropOp34
 70
     1
102
RTVSPost2010Prop35
280
     0
102
RTVSPost2010PropOp35
 70
     1
102
RTVSPost2010Prop36
280
     0
102
RTVSPost2010PropOp36
 70
     1
102
RTVSPost2010Prop37
 90
       50
102
RTVSPost2010PropOp37
 70
     1
102
RTVSPost2010Prop38
140
0.0
102
RTVSPost2010PropOp38
 70
     1
102
RTVSPost2010Prop39
140
1.0
102
RTVSPost2010PropOp39
 70
     1
102
RTVSPost2010Prop40
 90
        0
102
RTVSPost2010PropOp40
 70
     1
102
RTVSPost2010Prop41ColorIndex
 90
       18
102
RTVSPost2010Prop41ColorRGB
 90
        0
102
RTVSPost2010PropOp41
 70
     1
102
RTVSPost2010Prop42
 90
       50
102
RTVSPost2010PropOp42
 70
     1
102
RTVSPost2010Prop43
 90
        3
102
RTVSPost2010PropOp43
 70
     1
102
RTVSPost2010Prop44ColorIndex
 90
        5
102
RTVSPost2010Prop44ColorRGB
 90
      255
102
RTVSPost2010PropOp44
 70
     1
102
RTVSPost2010Prop45
280
     0
102
RTVSPost2010PropOp45
 70
     1
102
RTVSPost2010Prop46
 90
       50
102
RTVSPost2010PropOp46
 70
     1
102
RTVSPost2010Prop47
 90
       50
102
RTVSPost2010PropOp47
 70
     1
102
RTVSPost2010Prop48
 90
       50
102
RTVSPost2010PropOp48
 70
     1
102
RTVSPost2010Prop49
280
     0
102
RTVSPost2010PropOp49
 70
     1
102
RTVSPost2010Prop50
 90
       50
102
RTVSPost2010PropOp50
 70
     1
102
RTVSPost2010Prop51ColorIndex
 90
      256
102
RTVSPost2010Prop51ColorRGB
 90
-16777216
102
RTVSPost2010PropOp51
 70
     0
102
RTVSPost2010Prop52
140
1.0
102
RTVSPost2010PropOp52
 70
     0
102
RTVSPost2010Prop53
 90
        2
102
RTVSPost2010PropOp53
 70
     1
102
RTVSPost2010Prop54
  1
strokes_ogs.tif
102
RTVSPost2010PropOp54
 70
     1
102
RTVSPost2010Prop55
280
     0
102
RTVSPost2010PropOp55
 70
     1
102
RTVSPost2010Prop56
140
1.0
102
RTVSPost2010PropOp56
 70
     1
102
RTVSPost2010Prop57
140
1.0
102
RTVSPost2010PropOp57
 70
     1
  0
XRECORD
  5
3D7
102
{ACAD_REACTORS
330
3D6
102
}
330
3D6
100
AcDbXrecord
280
     1
102
RTVSPropertyOp0
 70
     1
102
RTVSPropertyOp1
 70
     1
102
RTVSPropertyOp2
 70
     1
102
RTVSPropertyOp3
 70
     1
102
RTVSPropertyOp4
 70
     1
102
RTVSPropertyOp5
 70
     1
102
RTVSPropertyOp6
 70
     1
102
RTVSPropertyOp7
 70
     1
102
RTVSPropertyOp8
 70
     1
102
RTVSPropertyOp9
 70
     1
102
RTVSPropertyOp10
 70
     1
102
RTVSPropertyOp11
 70
     1
102
RTVSPropertyOp12
 70
     1
102
RTVSPropertyOp13
 70
     1
102
RTVSPropertyOp14
 70
     1
102
RTVSPropertyOp15
 70
     1
102
RTVSPropertyOp16
 70
     1
102
RTVSPropertyOp17
 70
     1
102
RTVSPropertyOp18
 70
     1
102
RTVSPropertyOp19
 70
     1
102
RTVSPropertyOp20
 70
     1
102
RTVSPropertyOp21
 70
     1
102
RTVSPropertyOp22
 70
     1
102
RTVSPropertyOp23
 70
     1
102
RTVSPropertyOp24
 70
     1
102
RTVSPropertyOp25
 70
     1
102
RTVSPropertyOp26
 70
     1
102
RTVSPropertyOp27
 70
     1
102
RTVSPropertyOp28
 70
     1
102
RTVSPropertyOp29
 70
     1
102
RTVSPropertyOp30
 70
     1
102
RTVSPropertyOp31
 70
     1
102
RTVSPropertyOp32
 70
     1
102
RTVSPropertyOp33
 70
     1
102
RTVSPropertyOp34
 70
     1
102
RTVSPropertyOp35
 70
     1
102
RTVSPropertyOp36
 70
     1
102
RTVSPropertyOp37
 70
     1
102
RTVSPropertyOp38
 70
     1
102
RTVSPropertyOp39
 70
     1
102
RTVSPropertyOp40
 70
     1
102
RTVSPropertyOp41
 70
     1
102
RTVSPropertyOp42
 70
     1
102
RTVSPropertyOp43
 70
     1
102
RTVSPropertyOp44
 70
     1
102
RTVSPropertyOp45
 70
     1
102
RTVSPropertyOp46
 70
     1
102
RTVSPropertyOp47
 70
     1
102
RTVSPropertyOp48
 70
     1
102
RTVSPropertyOp49
 70
     1
102
RTVSPropertyOp50
 70
     1
102
RTVSPropertyOp51
 70
     0
102
RTVSPropertyOp52
 70
     0
102
RTVSPropertyOp53
 70
     1
102
RTVSPropertyOp54
 70
     1
102
RTVSPropertyOp55
 70
     1
102
RTVSPropertyOp56
 70
     1
102
RTVSPropertyOp57
 70
     1
102
RTVSPost2010Prop28
280
     0
102
RTVSPost2010PropOp28
 70
     1
102
RTVSPost2010Prop29
280
     1
102
RTVSPost2010PropOp29
 70
     1
102
RTVSPost2010Prop30
280
     1
102
RTVSPost2010PropOp30
 70
     1
102
RTVSPost2010Prop31
280
     0
102
RTVSPost2010PropOp31
 70
     1
102
RTVSPost2010Prop32
280
     0
102
RTVSPost2010PropOp32
 70
     1
102
RTVSPost2010Prop33
280
     0
102
RTVSPost2010PropOp33
 70
     1
102
RTVSPost2010Prop34
280
     0
102
RTVSPost2010PropOp34
 70
     1
102
RTVSPost2010Prop35
280
     0
102
RTVSPost2010PropOp35
 70
     1
102
RTVSPost2010Prop36
280
     0
102
RTVSPost2010PropOp36
 70
     1
102
RTVSPost2010Prop37
 90
       50
102
RTVSPost2010PropOp37
 70
     1
102
RTVSPost2010Prop38
140
0.0
102
RTVSPost2010PropOp38
 70
     1
102
RTVSPost2010Prop39
140
1.0
102
RTVSPost2010PropOp39
 70
     1
102
RTVSPost2010Prop40
 90
        0
102
RTVSPost2010PropOp40
 70
     1
102
RTVSPost2010Prop41ColorIndex
 90
       18
102
RTVSPost2010Prop41ColorRGB
 90
        0
102
RTVSPost2010PropOp41
 70
     1
102
RTVSPost2010Prop42
 90
       50
102
RTVSPost2010PropOp42
 70
     1
102
RTVSPost2010Prop43
 90
        3
102
RTVSPost2010PropOp43
 70
     1
102
RTVSPost2010Prop44ColorIndex
 90
        5
102
RTVSPost2010Prop44ColorRGB
 90
      255
102
RTVSPost2010PropOp44
 70
     1
102
RTVSPost2010Prop45
280
     0
102
RTVSPost2010PropOp45
 70
     1
102
RTVSPost2010Prop46
 90
       50
102
RTVSPost2010PropOp46
 70
     1
102
RTVSPost2010Prop47
 90
       50
102
RTVSPost2010PropOp47
 70
     1
102
RTVSPost2010Prop48
 90
       50
102
RTVSPost2010PropOp48
 70
     1
102
RTVSPost2010Prop49
280
     0
102
RTVSPost2010PropOp49
 70
     1
102
RTVSPost2010Prop50
 90
       50
102
RTVSPost2010PropOp50
 70
     1
102
RTVSPost2010Prop51ColorIndex
 90
      256
102
RTVSPost2010Prop51ColorRGB
 90
-16777216
102
RTVSPost2010PropOp51
 70
     0
102
RTVSPost2010Prop52
140
1.0
102
RTVSPost2010PropOp52
 70
     0
102
RTVSPost2010Prop53
 90
        2
102
RTVSPost2010PropOp53
 70
     1
102
RTVSPost2010Prop54
  1
strokes_ogs.tif
102
RTVSPost2010PropOp54
 70
     1
102
RTVSPost2010Prop55
280
     0
102
RTVSPost2010PropOp55
 70
     1
102
RTVSPost2010Prop56
140
1.0
102
RTVSPost2010PropOp56
 70
     1
102
RTVSPost2010Prop57
140
1.0
102
RTVSPost2010PropOp57
 70
     1
  0
XRECORD
  5
3D9
102
{ACAD_REACTORS
330
3D8
102
}
330
3D8
100
AcDbXrecord
280
     1
102
RTVSPropertyOp0
 70
     1
102
RTVSPropertyOp1
 70
     1
102
RTVSPropertyOp2
 70
     1
102
RTVSPropertyOp3
 70
     1
102
RTVSPropertyOp4
 70
     1
102
RTVSPropertyOp5
 70
     1
102
RTVSPropertyOp6
 70
     1
102
RTVSPropertyOp7
 70
     1
102
RTVSPropertyOp8
 70
     1
102
RTVSPropertyOp9
 70
     1
102
RTVSPropertyOp10
 70
     1
102
RTVSPropertyOp11
 70
     1
102
RTVSPropertyOp12
 70
     1
102
RTVSPropertyOp13
 70
     1
102
RTVSPropertyOp14
 70
     1
102
RTVSPropertyOp15
 70
     1
102
RTVSPropertyOp16
 70
     1
102
RTVSPropertyOp17
 70
     1
102
RTVSPropertyOp18
 70
     1
102
RTVSPropertyOp19
 70
     1
102
RTVSPropertyOp20
 70
     1
102
RTVSPropertyOp21
 70
     1
102
RTVSPropertyOp22
 70
     1
102
RTVSPropertyOp23
 70
     1
102
RTVSPropertyOp24
 70
     1
102
RTVSPropertyOp25
 70
     1
102
RTVSPropertyOp26
 70
     1
102
RTVSPropertyOp27
 70
     1
102
RTVSPropertyOp28
 70
     1
102
RTVSPropertyOp29
 70
     1
102
RTVSPropertyOp30
 70
     1
102
RTVSPropertyOp31
 70
     1
102
RTVSPropertyOp32
 70
     1
102
RTVSPropertyOp33
 70
     1
102
RTVSPropertyOp34
 70
     1
102
RTVSPropertyOp35
 70
     1
102
RTVSPropertyOp36
 70
     1
102
RTVSPropertyOp37
 70
     1
102
RTVSPropertyOp38
 70
     1
102
RTVSPropertyOp39
 70
     1
102
RTVSPropertyOp40
 70
     1
102
RTVSPropertyOp41
 70
     1
102
RTVSPropertyOp42
 70
     1
102
RTVSPropertyOp43
 70
     1
102
RTVSPropertyOp44
 70
     1
102
RTVSPropertyOp45
 70
     1
102
RTVSPropertyOp46
 70
     1
102
RTVSPropertyOp47
 70
     1
102
RTVSPropertyOp48
 70
     1
102
RTVSPropertyOp49
 70
     1
102
RTVSPropertyOp50
 70
     1
102
RTVSPropertyOp51
 70
     0
102
RTVSPropertyOp52
 70
     0
102
RTVSPropertyOp53
 70
     1
102
RTVSPropertyOp54
 70
     1
102
RTVSPropertyOp55
 70
     1
102
RTVSPropertyOp56
 70
     1
102
RTVSPropertyOp57
 70
     1
102
RTVSPost2010Prop28
280
     0
102
RTVSPost2010PropOp28
 70
     1
102
RTVSPost2010Prop29
280
     1
102
RTVSPost2010PropOp29
 70
     1
102
RTVSPost2010Prop30
280
     1
102
RTVSPost2010PropOp30
 70
     1
102
RTVSPost2010Prop31
280
     0
102
RTVSPost2010PropOp31
 70
     1
102
RTVSPost2010Prop32
280
     0
102
RTVSPost2010PropOp32
 70
     1
102
RTVSPost2010Prop33
280
     0
102
RTVSPost2010PropOp33
 70
     1
102
RTVSPost2010Prop34
280
     0
102
RTVSPost2010PropOp34
 70
     1
102
RTVSPost2010Prop35
280
     0
102
RTVSPost2010PropOp35
 70
     1
102
RTVSPost2010Prop36
280
     0
102
RTVSPost2010PropOp36
 70
     1
102
RTVSPost2010Prop37
 90
       50
102
RTVSPost2010PropOp37
 70
     1
102
RTVSPost2010Prop38
140
0.0
102
RTVSPost2010PropOp38
 70
     1
102
RTVSPost2010Prop39
140
1.0
102
RTVSPost2010PropOp39
 70
     1
102
RTVSPost2010Prop40
 90
        0
102
RTVSPost2010PropOp40
 70
     1
102
RTVSPost2010Prop41ColorIndex
 90
       18
102
RTVSPost2010Prop41ColorRGB
 90
        0
102
RTVSPost2010PropOp41
 70
     1
102
RTVSPost2010Prop42
 90
       50
102
RTVSPost2010PropOp42
 70
     1
102
RTVSPost2010Prop43
 90
        3
102
RTVSPost2010PropOp43
 70
     1
102
RTVSPost2010Prop44ColorIndex
 90
        5
102
RTVSPost2010Prop44ColorRGB
 90
      255
102
RTVSPost2010PropOp44
 70
     1
102
RTVSPost2010Prop45
280
     0
102
RTVSPost2010PropOp45
 70
     1
102
RTVSPost2010Prop46
 90
       50
102
RTVSPost2010PropOp46
 70
     1
102
RTVSPost2010Prop47
 90
       50
102
RTVSPost2010PropOp47
 70
     1
102
RTVSPost2010Prop48
 90
       50
102
RTVSPost2010PropOp48
 70
     1
102
RTVSPost2010Prop49
280
     0
102
RTVSPost2010PropOp49
 70
     1
102
RTVSPost2010Prop50
 90
       50
102
RTVSPost2010PropOp50
 70
     1
102
RTVSPost2010Prop51ColorIndex
 90
      256
102
RTVSPost2010Prop51ColorRGB
 90
-16777216
102
RTVSPost2010PropOp51
 70
     0
102
RTVSPost2010Prop52
140
1.0
102
RTVSPost2010PropOp52
 70
     0
102
RTVSPost2010Prop53
 90
        2
102
RTVSPost2010PropOp53
 70
     1
102
RTVSPost2010Prop54
  1
strokes_ogs.tif
102
RTVSPost2010PropOp54
 70
     1
102
RTVSPost2010Prop55
280
     0
102
RTVSPost2010PropOp55
 70
     1
102
RTVSPost2010Prop56
140
1.0
102
RTVSPost2010PropOp56
 70
     1
102
RTVSPost2010Prop57
140
1.0
102
RTVSPost2010PropOp57
 70
     1
  0
XRECORD
  5
3DF
102
{ACAD_REACTORS
330
3DE
102
}
330
3DE
100
AcDbXrecord
280
     1
102
RTVSPropertyOp0
 70
     1
102
RTVSPropertyOp1
 70
     1
102
RTVSPropertyOp2
 70
     1
102
RTVSPropertyOp3
 70
     1
102
RTVSPropertyOp4
 70
     1
102
RTVSPropertyOp5
 70
     1
102
RTVSPropertyOp6
 70
     1
102
RTVSPropertyOp7
 70
     1
102
RTVSPropertyOp8
 70
     1
102
RTVSPropertyOp9
 70
     1
102
RTVSPropertyOp10
 70
     1
102
RTVSPropertyOp11
 70
     1
102
RTVSPropertyOp12
 70
     1
102
RTVSPropertyOp13
 70
     1
102
RTVSPropertyOp14
 70
     1
102
RTVSPropertyOp15
 70
     1
102
RTVSPropertyOp16
 70
     1
102
RTVSPropertyOp17
 70
     1
102
RTVSPropertyOp18
 70
     1
102
RTVSPropertyOp19
 70
     1
102
RTVSPropertyOp20
 70
     1
102
RTVSPropertyOp21
 70
     1
102
RTVSPropertyOp22
 70
     1
102
RTVSPropertyOp23
 70
     1
102
RTVSPropertyOp24
 70
     1
102
RTVSPropertyOp25
 70
     1
102
RTVSPropertyOp26
 70
     1
102
RTVSPropertyOp27
 70
     1
102
RTVSPropertyOp28
 70
     1
102
RTVSPropertyOp29
 70
     1
102
RTVSPropertyOp30
 70
     1
102
RTVSPropertyOp31
 70
     1
102
RTVSPropertyOp32
 70
     1
102
RTVSPropertyOp33
 70
     1
102
RTVSPropertyOp34
 70
     1
102
RTVSPropertyOp35
 70
     1
102
RTVSPropertyOp36
 70
     1
102
RTVSPropertyOp37
 70
     1
102
RTVSPropertyOp38
 70
     1
102
RTVSPropertyOp39
 70
     1
102
RTVSPropertyOp40
 70
     1
102
RTVSPropertyOp41
 70
     1
102
RTVSPropertyOp42
 70
     1
102
RTVSPropertyOp43
 70
     1
102
RTVSPropertyOp44
 70
     1
102
RTVSPropertyOp45
 70
     1
102
RTVSPropertyOp46
 70
     1
102
RTVSPropertyOp47
 70
     1
102
RTVSPropertyOp48
 70
     1
102
RTVSPropertyOp49
 70
     1
102
RTVSPropertyOp50
 70
     1
102
RTVSPropertyOp51
 70
     0
102
RTVSPropertyOp52
 70
     0
102
RTVSPropertyOp53
 70
     1
102
RTVSPropertyOp54
 70
     1
102
RTVSPropertyOp55
 70
     1
102
RTVSPropertyOp56
 70
     1
102
RTVSPropertyOp57
 70
     1
102
RTVSPost2010Prop28
280
     0
102
RTVSPost2010PropOp28
 70
     1
102
RTVSPost2010Prop29
280
     1
102
RTVSPost2010PropOp29
 70
     1
102
RTVSPost2010Prop30
280
     1
102
RTVSPost2010PropOp30
 70
     1
102
RTVSPost2010Prop31
280
     0
102
RTVSPost2010PropOp31
 70
     1
102
RTVSPost2010Prop32
280
     0
102
RTVSPost2010PropOp32
 70
     1
102
RTVSPost2010Prop33
280
     0
102
RTVSPost2010PropOp33
 70
     1
102
RTVSPost2010Prop34
280
     0
102
RTVSPost2010PropOp34
 70
     1
102
RTVSPost2010Prop35
280
     0
102
RTVSPost2010PropOp35
 70
     1
102
RTVSPost2010Prop36
280
     0
102
RTVSPost2010PropOp36
 70
     1
102
RTVSPost2010Prop37
 90
       50
102
RTVSPost2010PropOp37
 70
     1
102
RTVSPost2010Prop38
140
0.0
102
RTVSPost2010PropOp38
 70
     1
102
RTVSPost2010Prop39
140
1.0
102
RTVSPost2010PropOp39
 70
     1
102
RTVSPost2010Prop40
 90
        0
102
RTVSPost2010PropOp40
 70
     1
102
RTVSPost2010Prop41ColorIndex
 90
       18
102
RTVSPost2010Prop41ColorRGB
 90
        0
102
RTVSPost2010PropOp41
 70
     1
102
RTVSPost2010Prop42
 90
       50
102
RTVSPost2010PropOp42
 70
     1
102
RTVSPost2010Prop43
 90
        3
102
RTVSPost2010PropOp43
 70
     1
102
RTVSPost2010Prop44ColorIndex
 90
        5
102
RTVSPost2010Prop44ColorRGB
 90
      255
102
RTVSPost2010PropOp44
 70
     1
102
RTVSPost2010Prop45
280
     0
102
RTVSPost2010PropOp45
 70
     1
102
RTVSPost2010Prop46
 90
       50
102
RTVSPost2010PropOp46
 70
     1
102
RTVSPost2010Prop47
 90
       50
102
RTVSPost2010PropOp47
 70
     1
102
RTVSPost2010Prop48
 90
       50
102
RTVSPost2010PropOp48
 70
     1
102
RTVSPost2010Prop49
280
     0
102
RTVSPost2010PropOp49
 70
     1
102
RTVSPost2010Prop50
 90
       50
102
RTVSPost2010PropOp50
 70
     1
102
RTVSPost2010Prop51ColorIndex
 90
      256
102
RTVSPost2010Prop51ColorRGB
 90
-16777216
102
RTVSPost2010PropOp51
 70
     0
102
RTVSPost2010Prop52
140
1.0
102
RTVSPost2010PropOp52
 70
     0
102
RTVSPost2010Prop53
 90
        2
102
RTVSPost2010PropOp53
 70
     1
102
RTVSPost2010Prop54
  1
strokes_ogs.tif
102
RTVSPost2010PropOp54
 70
     1
102
RTVSPost2010Prop55
280
     0
102
RTVSPost2010PropOp55
 70
     1
102
RTVSPost2010Prop56
140
1.0
102
RTVSPost2010PropOp56
 70
     1
102
RTVSPost2010Prop57
140
1.0
102
RTVSPost2010PropOp57
 70
     1
  0
XRECORD
  5
3F3
102
{ACAD_REACTORS
330
3F2
102
}
330
3F2
100
AcDbXrecord
280
     1
102
RTVSPropertyOp0
 70
     0
102
RTVSPropertyOp1
 70
     0
102
RTVSPropertyOp2
 70
     0
102
RTVSPropertyOp3
 70
     0
102
RTVSPropertyOp4
 70
     0
102
RTVSPropertyOp5
 70
     0
102
RTVSPropertyOp6
 70
     0
102
RTVSPropertyOp7
 70
     0
102
RTVSPropertyOp8
 70
     0
102
RTVSPropertyOp9
 70
     0
102
RTVSPropertyOp10
 70
     0
102
RTVSPropertyOp11
 70
     0
102
RTVSPropertyOp12
 70
     0
102
RTVSPropertyOp13
 70
     0
102
RTVSPropertyOp14
 70
     2
102
RTVSPropertyOp15
 70
     0
102
RTVSPropertyOp16
 70
     0
102
RTVSPropertyOp17
 70
     0
102
RTVSPropertyOp18
 70
     0
102
RTVSPropertyOp19
 70
     0
102
RTVSPropertyOp20
 70
     0
102
RTVSPropertyOp21
 70
     0
102
RTVSPropertyOp22
 70
     0
102
RTVSPropertyOp23
 70
     0
102
RTVSPropertyOp24
 70
     0
102
RTVSPropertyOp25
 70
     0
102
RTVSPropertyOp26
 70
     0
102
RTVSPropertyOp27
 70
     0
102
RTVSPropertyOp28
 70
     0
102
RTVSPropertyOp29
 70
     0
102
RTVSPropertyOp30
 70
     0
102
RTVSPropertyOp31
 70
     0
102
RTVSPropertyOp32
 70
     0
102
RTVSPropertyOp33
 70
     0
102
RTVSPropertyOp34
 70
     0
102
RTVSPropertyOp35
 70
     0
102
RTVSPropertyOp36
 70
     0
102
RTVSPropertyOp37
 70
     0
102
RTVSPropertyOp38
 70
     0
102
RTVSPropertyOp39
 70
     0
102
RTVSPropertyOp40
 70
     0
102
RTVSPropertyOp41
 70
     0
102
RTVSPropertyOp42
 70
     0
102
RTVSPropertyOp43
 70
     0
102
RTVSPropertyOp44
 70
     0
102
RTVSPropertyOp45
 70
     0
102
RTVSPropertyOp46
 70
     0
102
RTVSPropertyOp47
 70
     0
102
RTVSPropertyOp48
 70
     0
102
RTVSPropertyOp49
 70
     0
102
RTVSPropertyOp50
 70
     0
102
RTVSPropertyOp51
 70
     0
102
RTVSPropertyOp52
 70
     0
102
RTVSPropertyOp53
 70
     0
102
RTVSPropertyOp54
 70
     0
102
RTVSPropertyOp55
 70
     0
102
RTVSPropertyOp56
 70
     0
102
RTVSPropertyOp57
 70
     0
102
RTVSPost2010Prop28
280
     0
102
RTVSPost2010PropOp28
 70
     0
102
RTVSPost2010Prop29
280
     1
102
RTVSPost2010PropOp29
 70
     0
102
RTVSPost2010Prop30
280
     1
102
RTVSPost2010PropOp30
 70
     0
102
RTVSPost2010Prop31
280
     0
102
RTVSPost2010PropOp31
 70
     0
102
RTVSPost2010Prop32
280
     0
102
RTVSPost2010PropOp32
 70
     0
102
RTVSPost2010Prop33
280
     0
102
RTVSPost2010PropOp33
 70
     0
102
RTVSPost2010Prop34
280
     0
102
RTVSPost2010PropOp34
 70
     0
102
RTVSPost2010Prop35
280
     0
102
RTVSPost2010PropOp35
 70
     0
102
RTVSPost2010Prop36
280
     0
102
RTVSPost2010PropOp36
 70
     0
102
RTVSPost2010Prop37
 90
       50
102
RTVSPost2010PropOp37
 70
     0
102
RTVSPost2010Prop38
140
0.0
102
RTVSPost2010PropOp38
 70
     0
102
RTVSPost2010Prop39
140
1.0
102
RTVSPost2010PropOp39
 70
     0
102
RTVSPost2010Prop40
 90
        0
102
RTVSPost2010PropOp40
 70
     0
102
RTVSPost2010Prop41ColorIndex
 90
       18
102
RTVSPost2010Prop41ColorRGB
 90
        0
102
RTVSPost2010PropOp41
 70
     0
102
RTVSPost2010Prop42
 90
       50
102
RTVSPost2010PropOp42
 70
     0
102
RTVSPost2010Prop43
 90
        3
102
RTVSPost2010PropOp43
 70
     0
102
RTVSPost2010Prop44ColorIndex
 90
        5
102
RTVSPost2010Prop44ColorRGB
 90
      255
102
RTVSPost2010PropOp44
 70
     0
102
RTVSPost2010Prop45
280
     0
102
RTVSPost2010PropOp45
 70
     0
102
RTVSPost2010Prop46
 90
       50
102
RTVSPost2010PropOp46
 70
     0
102
RTVSPost2010Prop47
 90
       50
102
RTVSPost2010PropOp47
 70
     0
102
RTVSPost2010Prop48
 90
       50
102
RTVSPost2010PropOp48
 70
     0
102
RTVSPost2010Prop49
280
     0
102
RTVSPost2010PropOp49
 70
     0
102
RTVSPost2010Prop50
 90
       50
102
RTVSPost2010PropOp50
 70
     0
102
RTVSPost2010Prop51ColorIndex
 90
      256
102
RTVSPost2010Prop51ColorRGB
 90
-16777216
102
RTVSPost2010PropOp51
 70
     0
102
RTVSPost2010Prop52
140
1.0
102
RTVSPost2010PropOp52
 70
     0
102
RTVSPost2010Prop53
 90
        2
102
RTVSPost2010PropOp53
 70
     0
102
RTVSPost2010Prop54
  1
strokes_ogs.tif
102
RTVSPost2010PropOp54
 70
     0
102
RTVSPost2010Prop55
280
     0
102
RTVSPost2010PropOp55
 70
     0
102
RTVSPost2010Prop56
140
1.0
102
RTVSPost2010PropOp56
 70
     0
102
RTVSPost2010Prop57
140
1.0
102
RTVSPost2010PropOp57
 70
     0
  0
XRECORD
  5
3ED
102
{ACAD_REACTORS
330
3EC
102
}
330
3EC
100
AcDbXrecord
280
     1
102
RTVSPropertyOp0
 70
     1
102
RTVSPropertyOp1
 70
     1
102
RTVSPropertyOp2
 70
     1
102
RTVSPropertyOp3
 70
     1
102
RTVSPropertyOp4
 70
     1
102
RTVSPropertyOp5
 70
     1
102
RTVSPropertyOp6
 70
     1
102
RTVSPropertyOp7
 70
     1
102
RTVSPropertyOp8
 70
     1
102
RTVSPropertyOp9
 70
     1
102
RTVSPropertyOp10
 70
     1
102
RTVSPropertyOp11
 70
     1
102
RTVSPropertyOp12
 70
     1
102
RTVSPropertyOp13
 70
     1
102
RTVSPropertyOp14
 70
     1
102
RTVSPropertyOp15
 70
     1
102
RTVSPropertyOp16
 70
     1
102
RTVSPropertyOp17
 70
     1
102
RTVSPropertyOp18
 70
     1
102
RTVSPropertyOp19
 70
     1
102
RTVSPropertyOp20
 70
     1
102
RTVSPropertyOp21
 70
     1
102
RTVSPropertyOp22
 70
     1
102
RTVSPropertyOp23
 70
     1
102
RTVSPropertyOp24
 70
     1
102
RTVSPropertyOp25
 70
     1
102
RTVSPropertyOp26
 70
     1
102
RTVSPropertyOp27
 70
     1
102
RTVSPropertyOp28
 70
     1
102
RTVSPropertyOp29
 70
     1
102
RTVSPropertyOp30
 70
     1
102
RTVSPropertyOp31
 70
     1
102
RTVSPropertyOp32
 70
     1
102
RTVSPropertyOp33
 70
     1
102
RTVSPropertyOp34
 70
     1
102
RTVSPropertyOp35
 70
     1
102
RTVSPropertyOp36
 70
     1
102
RTVSPropertyOp37
 70
     1
102
RTVSPropertyOp38
 70
     1
102
RTVSPropertyOp39
 70
     1
102
RTVSPropertyOp40
 70
     1
102
RTVSPropertyOp41
 70
     1
102
RTVSPropertyOp42
 70
     1
102
RTVSPropertyOp43
 70
     1
102
RTVSPropertyOp44
 70
     1
102
RTVSPropertyOp45
 70
     1
102
RTVSPropertyOp46
 70
     1
102
RTVSPropertyOp47
 70
     1
102
RTVSPropertyOp48
 70
     1
102
RTVSPropertyOp49
 70
     1
102
RTVSPropertyOp50
 70
     1
102
RTVSPropertyOp51
 70
     0
102
RTVSPropertyOp52
 70
     0
102
RTVSPropertyOp53
 70
     1
102
RTVSPropertyOp54
 70
     1
102
RTVSPropertyOp55
 70
     1
102
RTVSPropertyOp56
 70
     1
102
RTVSPropertyOp57
 70
     1
102
RTVSPost2010Prop28
280
     0
102
RTVSPost2010PropOp28
 70
     1
102
RTVSPost2010Prop29
280
     1
102
RTVSPost2010PropOp29
 70
     1
102
RTVSPost2010Prop30
280
     1
102
RTVSPost2010PropOp30
 70
     1
102
RTVSPost2010Prop31
280
     0
102
RTVSPost2010PropOp31
 70
     1
102
RTVSPost2010Prop32
280
     0
102
RTVSPost2010PropOp32
 70
     1
102
RTVSPost2010Prop33
280
     0
102
RTVSPost2010PropOp33
 70
     1
102
RTVSPost2010Prop34
280
     0
102
RTVSPost2010PropOp34
 70
     1
102
RTVSPost2010Prop35
280
     0
102
RTVSPost2010PropOp35
 70
     1
102
RTVSPost2010Prop36
280
     0
102
RTVSPost2010PropOp36
 70
     1
102
RTVSPost2010Prop37
 90
       50
102
RTVSPost2010PropOp37
 70
     1
102
RTVSPost2010Prop38
140
0.0
102
RTVSPost2010PropOp38
 70
     1
102
RTVSPost2010Prop39
140
1.0
102
RTVSPost2010PropOp39
 70
     1
102
RTVSPost2010Prop40
 90
        0
102
RTVSPost2010PropOp40
 70
     1
102
RTVSPost2010Prop41ColorIndex
 90
       18
102
RTVSPost2010Prop41ColorRGB
 90
        0
102
RTVSPost2010PropOp41
 70
     1
102
RTVSPost2010Prop42
 90
       50
102
RTVSPost2010PropOp42
 70
     1
102
RTVSPost2010Prop43
 90
        3
102
RTVSPost2010PropOp43
 70
     1
102
RTVSPost2010Prop44ColorIndex
 90
        5
102
RTVSPost2010Prop44ColorRGB
 90
      255
102
RTVSPost2010PropOp44
 70
     1
102
RTVSPost2010Prop45
280
     0
102
RTVSPost2010PropOp45
 70
     1
102
RTVSPost2010Prop46
 90
       50
102
RTVSPost2010PropOp46
 70
     1
102
RTVSPost2010Prop47
 90
       50
102
RTVSPost2010PropOp47
 70
     1
102
RTVSPost2010Prop48
 90
       50
102
RTVSPost2010PropOp48
 70
     1
102
RTVSPost2010Prop49
280
     0
102
RTVSPost2010PropOp49
 70
     1
102
RTVSPost2010Prop50
 90
       50
102
RTVSPost2010PropOp50
 70
     1
102
RTVSPost2010Prop51ColorIndex
 90
      256
102
RTVSPost2010Prop51ColorRGB
 90
-16777216
102
RTVSPost2010PropOp51
 70
     0
102
RTVSPost2010Prop52
140
1.0
102
RTVSPost2010PropOp52
 70
     0
102
RTVSPost2010Prop53
 90
        2
102
RTVSPost2010PropOp53
 70
     1
102
RTVSPost2010Prop54
  1
strokes_ogs.tif
102
RTVSPost2010PropOp54
 70
     1
102
RTVSPost2010Prop55
280
     0
102
RTVSPost2010PropOp55
 70
     1
102
RTVSPost2010Prop56
140
1.0
102
RTVSPost2010PropOp56
 70
     1
102
RTVSPost2010Prop57
140
1.0
102
RTVSPost2010PropOp57
 70
     1
  0
XRECORD
  5
3F5
102
{ACAD_REACTORS
330
3F4
102
}
330
3F4
100
AcDbXrecord
280
     1
102
RTVSPropertyOp0
 70
     0
102
RTVSPropertyOp1
 70
     0
102
RTVSPropertyOp2
 70
     0
102
RTVSPropertyOp3
 70
     0
102
RTVSPropertyOp4
 70
     0
102
RTVSPropertyOp5
 70
     0
102
RTVSPropertyOp6
 70
     0
102
RTVSPropertyOp7
 70
     0
102
RTVSPropertyOp8
 70
     0
102
RTVSPropertyOp9
 70
     0
102
RTVSPropertyOp10
 70
     0
102
RTVSPropertyOp11
 70
     0
102
RTVSPropertyOp12
 70
     0
102
RTVSPropertyOp13
 70
     0
102
RTVSPropertyOp14
 70
     2
102
RTVSPropertyOp15
 70
     0
102
RTVSPropertyOp16
 70
     0
102
RTVSPropertyOp17
 70
     0
102
RTVSPropertyOp18
 70
     0
102
RTVSPropertyOp19
 70
     0
102
RTVSPropertyOp20
 70
     0
102
RTVSPropertyOp21
 70
     0
102
RTVSPropertyOp22
 70
     0
102
RTVSPropertyOp23
 70
     0
102
RTVSPropertyOp24
 70
     0
102
RTVSPropertyOp25
 70
     0
102
RTVSPropertyOp26
 70
     0
102
RTVSPropertyOp27
 70
     0
102
RTVSPropertyOp28
 70
     0
102
RTVSPropertyOp29
 70
     0
102
RTVSPropertyOp30
 70
     0
102
RTVSPropertyOp31
 70
     0
102
RTVSPropertyOp32
 70
     0
102
RTVSPropertyOp33
 70
     0
102
RTVSPropertyOp34
 70
     0
102
RTVSPropertyOp35
 70
     0
102
RTVSPropertyOp36
 70
     0
102
RTVSPropertyOp37
 70
     0
102
RTVSPropertyOp38
 70
     0
102
RTVSPropertyOp39
 70
     0
102
RTVSPropertyOp40
 70
     0
102
RTVSPropertyOp41
 70
     0
102
RTVSPropertyOp42
 70
     0
102
RTVSPropertyOp43
 70
     0
102
RTVSPropertyOp44
 70
     0
102
RTVSPropertyOp45
 70
     0
102
RTVSPropertyOp46
 70
     0
102
RTVSPropertyOp47
 70
     0
102
RTVSPropertyOp48
 70
     0
102
RTVSPropertyOp49
 70
     0
102
RTVSPropertyOp50
 70
     0
102
RTVSPropertyOp51
 70
     0
102
RTVSPropertyOp52
 70
     0
102
RTVSPropertyOp53
 70
     0
102
RTVSPropertyOp54
 70
     0
102
RTVSPropertyOp55
 70
     0
102
RTVSPropertyOp56
 70
     0
102
RTVSPropertyOp57
 70
     0
102
RTVSPost2010Prop28
280
     0
102
RTVSPost2010PropOp28
 70
     0
102
RTVSPost2010Prop29
280
     1
102
RTVSPost2010PropOp29
 70
     0
102
RTVSPost2010Prop30
280
     1
102
RTVSPost2010PropOp30
 70
     0
102
RTVSPost2010Prop31
280
     0
102
RTVSPost2010PropOp31
 70
     0
102
RTVSPost2010Prop32
280
     0
102
RTVSPost2010PropOp32
 70
     0
102
RTVSPost2010Prop33
280
     0
102
RTVSPost2010PropOp33
 70
     0
102
RTVSPost2010Prop34
280
     0
102
RTVSPost2010PropOp34
 70
     0
102
RTVSPost2010Prop35
280
     0
102
RTVSPost2010PropOp35
 70
     0
102
RTVSPost2010Prop36
280
     0
102
RTVSPost2010PropOp36
 70
     0
102
RTVSPost2010Prop37
 90
       50
102
RTVSPost2010PropOp37
 70
     0
102
RTVSPost2010Prop38
140
0.0
102
RTVSPost2010PropOp38
 70
     0
102
RTVSPost2010Prop39
140
1.0
102
RTVSPost2010PropOp39
 70
     0
102
RTVSPost2010Prop40
 90
        0
102
RTVSPost2010PropOp40
 70
     0
102
RTVSPost2010Prop41ColorIndex
 90
       18
102
RTVSPost2010Prop41ColorRGB
 90
        0
102
RTVSPost2010PropOp41
 70
     0
102
RTVSPost2010Prop42
 90
       50
102
RTVSPost2010PropOp42
 70
     0
102
RTVSPost2010Prop43
 90
        3
102
RTVSPost2010PropOp43
 70
     0
102
RTVSPost2010Prop44ColorIndex
 90
        5
102
RTVSPost2010Prop44ColorRGB
 90
      255
102
RTVSPost2010PropOp44
 70
     0
102
RTVSPost2010Prop45
280
     0
102
RTVSPost2010PropOp45
 70
     0
102
RTVSPost2010Prop46
 90
       50
102
RTVSPost2010PropOp46
 70
     0
102
RTVSPost2010Prop47
 90
       50
102
RTVSPost2010PropOp47
 70
     0
102
RTVSPost2010Prop48
 90
       50
102
RTVSPost2010PropOp48
 70
     0
102
RTVSPost2010Prop49
280
     0
102
RTVSPost2010PropOp49
 70
     0
102
RTVSPost2010Prop50
 90
       50
102
RTVSPost2010PropOp50
 70
     0
102
RTVSPost2010Prop51ColorIndex
 90
      256
102
RTVSPost2010Prop51ColorRGB
 90
-16777216
102
RTVSPost2010PropOp51
 70
     0
102
RTVSPost2010Prop52
140
1.0
102
RTVSPost2010PropOp52
 70
     0
102
RTVSPost2010Prop53
 90
        2
102
RTVSPost2010PropOp53
 70
     0
102
RTVSPost2010Prop54
  1
strokes_ogs.tif
102
RTVSPost2010PropOp54
 70
     0
102
RTVSPost2010Prop55
280
     0
102
RTVSPost2010PropOp55
 70
     0
102
RTVSPost2010Prop56
140
1.0
102
RTVSPost2010PropOp56
 70
     0
102
RTVSPost2010Prop57
140
1.0
102
RTVSPost2010PropOp57
 70
     0
  0
XRECORD
  5
3E3
102
{ACAD_REACTORS
330
3E2
102
}
330
3E2
100
AcDbXrecord
280
     1
102
RTVSPropertyOp0
 70
     1
102
RTVSPropertyOp1
 70
     1
102
RTVSPropertyOp2
 70
     1
102
RTVSPropertyOp3
 70
     1
102
RTVSPropertyOp4
 70
     1
102
RTVSPropertyOp5
 70
     1
102
RTVSPropertyOp6
 70
     1
102
RTVSPropertyOp7
 70
     1
102
RTVSPropertyOp8
 70
     1
102
RTVSPropertyOp9
 70
     1
102
RTVSPropertyOp10
 70
     1
102
RTVSPropertyOp11
 70
     1
102
RTVSPropertyOp12
 70
     1
102
RTVSPropertyOp13
 70
     1
102
RTVSPropertyOp14
 70
     1
102
RTVSPropertyOp15
 70
     1
102
RTVSPropertyOp16
 70
     1
102
RTVSPropertyOp17
 70
     1
102
RTVSPropertyOp18
 70
     1
102
RTVSPropertyOp19
 70
     1
102
RTVSPropertyOp20
 70
     1
102
RTVSPropertyOp21
 70
     1
102
RTVSPropertyOp22
 70
     1
102
RTVSPropertyOp23
 70
     1
102
RTVSPropertyOp24
 70
     1
102
RTVSPropertyOp25
 70
     1
102
RTVSPropertyOp26
 70
     1
102
RTVSPropertyOp27
 70
     1
102
RTVSPropertyOp28
 70
     1
102
RTVSPropertyOp29
 70
     1
102
RTVSPropertyOp30
 70
     1
102
RTVSPropertyOp31
 70
     1
102
RTVSPropertyOp32
 70
     1
102
RTVSPropertyOp33
 70
     1
102
RTVSPropertyOp34
 70
     1
102
RTVSPropertyOp35
 70
     1
102
RTVSPropertyOp36
 70
     1
102
RTVSPropertyOp37
 70
     1
102
RTVSPropertyOp38
 70
     1
102
RTVSPropertyOp39
 70
     1
102
RTVSPropertyOp40
 70
     1
102
RTVSPropertyOp41
 70
     1
102
RTVSPropertyOp42
 70
     1
102
RTVSPropertyOp43
 70
     1
102
RTVSPropertyOp44
 70
     1
102
RTVSPropertyOp45
 70
     1
102
RTVSPropertyOp46
 70
     1
102
RTVSPropertyOp47
 70
     1
102
RTVSPropertyOp48
 70
     1
102
RTVSPropertyOp49
 70
     1
102
RTVSPropertyOp50
 70
     1
102
RTVSPropertyOp51
 70
     0
102
RTVSPropertyOp52
 70
     0
102
RTVSPropertyOp53
 70
     1
102
RTVSPropertyOp54
 70
     1
102
RTVSPropertyOp55
 70
     1
102
RTVSPropertyOp56
 70
     1
102
RTVSPropertyOp57
 70
     1
102
RTVSPost2010Prop28
280
     0
102
RTVSPost2010PropOp28
 70
     1
102
RTVSPost2010Prop29
280
     1
102
RTVSPost2010PropOp29
 70
     1
102
RTVSPost2010Prop30
280
     1
102
RTVSPost2010PropOp30
 70
     1
102
RTVSPost2010Prop31
280
     0
102
RTVSPost2010PropOp31
 70
     1
102
RTVSPost2010Prop32
280
     0
102
RTVSPost2010PropOp32
 70
     1
102
RTVSPost2010Prop33
280
     0
102
RTVSPost2010PropOp33
 70
     1
102
RTVSPost2010Prop34
280
     0
102
RTVSPost2010PropOp34
 70
     1
102
RTVSPost2010Prop35
280
     0
102
RTVSPost2010PropOp35
 70
     1
102
RTVSPost2010Prop36
280
     0
102
RTVSPost2010PropOp36
 70
     1
102
RTVSPost2010Prop37
 90
       50
102
RTVSPost2010PropOp37
 70
     1
102
RTVSPost2010Prop38
140
0.0
102
RTVSPost2010PropOp38
 70
     1
102
RTVSPost2010Prop39
140
1.0
102
RTVSPost2010PropOp39
 70
     1
102
RTVSPost2010Prop40
 90
        0
102
RTVSPost2010PropOp40
 70
     1
102
RTVSPost2010Prop41ColorIndex
 90
       18
102
RTVSPost2010Prop41ColorRGB
 90
        0
102
RTVSPost2010PropOp41
 70
     1
102
RTVSPost2010Prop42
 90
       50
102
RTVSPost2010PropOp42
 70
     1
102
RTVSPost2010Prop43
 90
        3
102
RTVSPost2010PropOp43
 70
     1
102
RTVSPost2010Prop44ColorIndex
 90
        5
102
RTVSPost2010Prop44ColorRGB
 90
      255
102
RTVSPost2010PropOp44
 70
     1
102
RTVSPost2010Prop45
280
     0
102
RTVSPost2010PropOp45
 70
     1
102
RTVSPost2010Prop46
 90
       50
102
RTVSPost2010PropOp46
 70
     1
102
RTVSPost2010Prop47
 90
       50
102
RTVSPost2010PropOp47
 70
     1
102
RTVSPost2010Prop48
 90
       50
102
RTVSPost2010PropOp48
 70
     1
102
RTVSPost2010Prop49
280
     0
102
RTVSPost2010PropOp49
 70
     1
102
RTVSPost2010Prop50
 90
       50
102
RTVSPost2010PropOp50
 70
     1
102
RTVSPost2010Prop51ColorIndex
 90
      256
102
RTVSPost2010Prop51ColorRGB
 90
-16777216
102
RTVSPost2010PropOp51
 70
     0
102
RTVSPost2010Prop52
140
1.0
102
RTVSPost2010PropOp52
 70
     0
102
RTVSPost2010Prop53
 90
        2
102
RTVSPost2010PropOp53
 70
     1
102
RTVSPost2010Prop54
  1
strokes_ogs.tif
102
RTVSPost2010PropOp54
 70
     1
102
RTVSPost2010Prop55
280
     0
102
RTVSPost2010PropOp55
 70
     1
102
RTVSPost2010Prop56
140
1.0
102
RTVSPost2010PropOp56
 70
     1
102
RTVSPost2010Prop57
140
1.0
102
RTVSPost2010PropOp57
 70
     1
  0
XRECORD
  5
401
102
{ACAD_REACTORS
330
400
102
}
330
400
100
AcDbXrecord
280
     1
102
RTVSPropertyOp0
 70
     1
102
RTVSPropertyOp1
 70
     1
102
RTVSPropertyOp2
 70
     1
102
RTVSPropertyOp3
 70
     1
102
RTVSPropertyOp4
 70
     1
102
RTVSPropertyOp5
 70
     1
102
RTVSPropertyOp6
 70
     1
102
RTVSPropertyOp7
 70
     1
102
RTVSPropertyOp8
 70
     1
102
RTVSPropertyOp9
 70
     1
102
RTVSPropertyOp10
 70
     1
102
RTVSPropertyOp11
 70
     1
102
RTVSPropertyOp12
 70
     1
102
RTVSPropertyOp13
 70
     1
102
RTVSPropertyOp14
 70
     1
102
RTVSPropertyOp15
 70
     1
102
RTVSPropertyOp16
 70
     1
102
RTVSPropertyOp17
 70
     1
102
RTVSPropertyOp18
 70
     1
102
RTVSPropertyOp19
 70
     1
102
RTVSPropertyOp20
 70
     1
102
RTVSPropertyOp21
 70
     1
102
RTVSPropertyOp22
 70
     1
102
RTVSPropertyOp23
 70
     1
102
RTVSPropertyOp24
 70
     1
102
RTVSPropertyOp25
 70
     1
102
RTVSPropertyOp26
 70
     1
102
RTVSPropertyOp27
 70
     1
102
RTVSPropertyOp28
 70
     1
102
RTVSPropertyOp29
 70
     1
102
RTVSPropertyOp30
 70
     1
102
RTVSPropertyOp31
 70
     1
102
RTVSPropertyOp32
 70
     1
102
RTVSPropertyOp33
 70
     1
102
RTVSPropertyOp34
 70
     1
102
RTVSPropertyOp35
 70
     1
102
RTVSPropertyOp36
 70
     1
102
RTVSPropertyOp37
 70
     1
102
RTVSPropertyOp38
 70
     1
102
RTVSPropertyOp39
 70
     1
102
RTVSPropertyOp40
 70
     1
102
RTVSPropertyOp41
 70
     1
102
RTVSPropertyOp42
 70
     1
102
RTVSPropertyOp43
 70
     1
102
RTVSPropertyOp44
 70
     1
102
RTVSPropertyOp45
 70
     1
102
RTVSPropertyOp46
 70
     1
102
RTVSPropertyOp47
 70
     1
102
RTVSPropertyOp48
 70
     1
102
RTVSPropertyOp49
 70
     1
102
RTVSPropertyOp50
 70
     1
102
RTVSPropertyOp51
 70
     0
102
RTVSPropertyOp52
 70
     0
102
RTVSPropertyOp53
 70
     1
102
RTVSPropertyOp54
 70
     1
102
RTVSPropertyOp55
 70
     1
102
RTVSPropertyOp56
 70
     1
102
RTVSPropertyOp57
 70
     1
102
RTVSPost2010Prop28
280
     0
102
RTVSPost2010PropOp28
 70
     1
102
RTVSPost2010Prop29
280
     1
102
RTVSPost2010PropOp29
 70
     1
102
RTVSPost2010Prop30
280
     1
102
RTVSPost2010PropOp30
 70
     1
102
RTVSPost2010Prop31
280
     0
102
RTVSPost2010PropOp31
 70
     1
102
RTVSPost2010Prop32
280
     0
102
RTVSPost2010PropOp32
 70
     1
102
RTVSPost2010Prop33
280
     0
102
RTVSPost2010PropOp33
 70
     1
102
RTVSPost2010Prop34
280
     0
102
RTVSPost2010PropOp34
 70
     1
102
RTVSPost2010Prop35
280
     0
102
RTVSPost2010PropOp35
 70
     1
102
RTVSPost2010Prop36
280
     0
102
RTVSPost2010PropOp36
 70
     1
102
RTVSPost2010Prop37
 90
       50
102
RTVSPost2010PropOp37
 70
     1
102
RTVSPost2010Prop38
140
0.0
102
RTVSPost2010PropOp38
 70
     1
102
RTVSPost2010Prop39
140
1.0
102
RTVSPost2010PropOp39
 70
     1
102
RTVSPost2010Prop40
 90
        0
102
RTVSPost2010PropOp40
 70
     1
102
RTVSPost2010Prop41ColorIndex
 90
       18
102
RTVSPost2010Prop41ColorRGB
 90
        0
102
RTVSPost2010PropOp41
 70
     1
102
RTVSPost2010Prop42
 90
       50
102
RTVSPost2010PropOp42
 70
     1
102
RTVSPost2010Prop43
 90
        3
102
RTVSPost2010PropOp43
 70
     1
102
RTVSPost2010Prop44ColorIndex
 90
        5
102
RTVSPost2010Prop44ColorRGB
 90
      255
102
RTVSPost2010PropOp44
 70
     1
102
RTVSPost2010Prop45
280
     0
102
RTVSPost2010PropOp45
 70
     1
102
RTVSPost2010Prop46
 90
       50
102
RTVSPost2010PropOp46
 70
     1
102
RTVSPost2010Prop47
 90
       50
102
RTVSPost2010PropOp47
 70
     1
102
RTVSPost2010Prop48
 90
       50
102
RTVSPost2010PropOp48
 70
     1
102
RTVSPost2010Prop49
280
     0
102
RTVSPost2010PropOp49
 70
     1
102
RTVSPost2010Prop50
 90
       50
102
RTVSPost2010PropOp50
 70
     1
102
RTVSPost2010Prop51ColorIndex
 90
      256
102
RTVSPost2010Prop51ColorRGB
 90
-16777216
102
RTVSPost2010PropOp51
 70
     0
102
RTVSPost2010Prop52
140
1.0
102
RTVSPost2010PropOp52
 70
     0
102
RTVSPost2010Prop53
 90
        2
102
RTVSPost2010PropOp53
 70
     1
102
RTVSPost2010Prop54
  1
strokes_ogs.tif
102
RTVSPost2010PropOp54
 70
     1
102
RTVSPost2010Prop55
280
     0
102
RTVSPost2010PropOp55
 70
     1
102
RTVSPost2010Prop56
140
1.0
102
RTVSPost2010PropOp56
 70
     1
102
RTVSPost2010Prop57
140
1.0
102
RTVSPost2010PropOp57
 70
     1
  0
XRECORD
  5
3FF
102
{ACAD_REACTORS
330
3FE
102
}
330
3FE
100
AcDbXrecord
280
     1
102
RTVSPropertyOp0
 70
     1
102
RTVSPropertyOp1
 70
     1
102
RTVSPropertyOp2
 70
     1
102
RTVSPropertyOp3
 70
     1
102
RTVSPropertyOp4
 70
     1
102
RTVSPropertyOp5
 70
     1
102
RTVSPropertyOp6
 70
     1
102
RTVSPropertyOp7
 70
     1
102
RTVSPropertyOp8
 70
     1
102
RTVSPropertyOp9
 70
     1
102
RTVSPropertyOp10
 70
     1
102
RTVSPropertyOp11
 70
     1
102
RTVSPropertyOp12
 70
     1
102
RTVSPropertyOp13
 70
     1
102
RTVSPropertyOp14
 70
     1
102
RTVSPropertyOp15
 70
     1
102
RTVSPropertyOp16
 70
     1
102
RTVSPropertyOp17
 70
     1
102
RTVSPropertyOp18
 70
     1
102
RTVSPropertyOp19
 70
     1
102
RTVSPropertyOp20
 70
     1
102
RTVSPropertyOp21
 70
     1
102
RTVSPropertyOp22
 70
     1
102
RTVSPropertyOp23
 70
     1
102
RTVSPropertyOp24
 70
     1
102
RTVSPropertyOp25
 70
     1
102
RTVSPropertyOp26
 70
     1
102
RTVSPropertyOp27
 70
     1
102
RTVSPropertyOp28
 70
     1
102
RTVSPropertyOp29
 70
     1
102
RTVSPropertyOp30
 70
     1
102
RTVSPropertyOp31
 70
     1
102
RTVSPropertyOp32
 70
     1
102
RTVSPropertyOp33
 70
     1
102
RTVSPropertyOp34
 70
     1
102
RTVSPropertyOp35
 70
     1
102
RTVSPropertyOp36
 70
     1
102
RTVSPropertyOp37
 70
     1
102
RTVSPropertyOp38
 70
     1
102
RTVSPropertyOp39
 70
     1
102
RTVSPropertyOp40
 70
     1
102
RTVSPropertyOp41
 70
     1
102
RTVSPropertyOp42
 70
     1
102
RTVSPropertyOp43
 70
     1
102
RTVSPropertyOp44
 70
     1
102
RTVSPropertyOp45
 70
     1
102
RTVSPropertyOp46
 70
     1
102
RTVSPropertyOp47
 70
     1
102
RTVSPropertyOp48
 70
     1
102
RTVSPropertyOp49
 70
     1
102
RTVSPropertyOp50
 70
     1
102
RTVSPropertyOp51
 70
     0
102
RTVSPropertyOp52
 70
     0
102
RTVSPropertyOp53
 70
     1
102
RTVSPropertyOp54
 70
     1
102
RTVSPropertyOp55
 70
     1
102
RTVSPropertyOp56
 70
     1
102
RTVSPropertyOp57
 70
     1
102
RTVSPost2010Prop28
280
     0
102
RTVSPost2010PropOp28
 70
     1
102
RTVSPost2010Prop29
280
     1
102
RTVSPost2010PropOp29
 70
     1
102
RTVSPost2010Prop30
280
     1
102
RTVSPost2010PropOp30
 70
     1
102
RTVSPost2010Prop31
280
     0
102
RTVSPost2010PropOp31
 70
     1
102
RTVSPost2010Prop32
280
     0
102
RTVSPost2010PropOp32
 70
     1
102
RTVSPost2010Prop33
280
     0
102
RTVSPost2010PropOp33
 70
     1
102
RTVSPost2010Prop34
280
     0
102
RTVSPost2010PropOp34
 70
     1
102
RTVSPost2010Prop35
280
     0
102
RTVSPost2010PropOp35
 70
     1
102
RTVSPost2010Prop36
280
     0
102
RTVSPost2010PropOp36
 70
     1
102
RTVSPost2010Prop37
 90
       50
102
RTVSPost2010PropOp37
 70
     1
102
RTVSPost2010Prop38
140
0.0
102
RTVSPost2010PropOp38
 70
     1
102
RTVSPost2010Prop39
140
1.0
102
RTVSPost2010PropOp39
 70
     1
102
RTVSPost2010Prop40
 90
        0
102
RTVSPost2010PropOp40
 70
     1
102
RTVSPost2010Prop41ColorIndex
 90
       18
102
RTVSPost2010Prop41ColorRGB
 90
        0
102
RTVSPost2010PropOp41
 70
     1
102
RTVSPost2010Prop42
 90
       50
102
RTVSPost2010PropOp42
 70
     1
102
RTVSPost2010Prop43
 90
        3
102
RTVSPost2010PropOp43
 70
     1
102
RTVSPost2010Prop44ColorIndex
 90
        5
102
RTVSPost2010Prop44ColorRGB
 90
      255
102
RTVSPost2010PropOp44
 70
     1
102
RTVSPost2010Prop45
280
     0
102
RTVSPost2010PropOp45
 70
     1
102
RTVSPost2010Prop46
 90
       50
102
RTVSPost2010PropOp46
 70
     1
102
RTVSPost2010Prop47
 90
       50
102
RTVSPost2010PropOp47
 70
     1
102
RTVSPost2010Prop48
 90
       50
102
RTVSPost2010PropOp48
 70
     1
102
RTVSPost2010Prop49
280
     0
102
RTVSPost2010PropOp49
 70
     1
102
RTVSPost2010Prop50
 90
       50
102
RTVSPost2010PropOp50
 70
     1
102
RTVSPost2010Prop51ColorIndex
 90
      256
102
RTVSPost2010Prop51ColorRGB
 90
-16777216
102
RTVSPost2010PropOp51
 70
     0
102
RTVSPost2010Prop52
140
1.0
102
RTVSPost2010PropOp52
 70
     0
102
RTVSPost2010Prop53
 90
        2
102
RTVSPost2010PropOp53
 70
     1
102
RTVSPost2010Prop54
  1
strokes_ogs.tif
102
RTVSPost2010PropOp54
 70
     1
102
RTVSPost2010Prop55
280
     0
102
RTVSPost2010PropOp55
 70
     1
102
RTVSPost2010Prop56
140
1.0
102
RTVSPost2010PropOp56
 70
     1
102
RTVSPost2010Prop57
140
1.0
102
RTVSPost2010PropOp57
 70
     1
  0
XRECORD
  5
3F9
102
{ACAD_REACTORS
330
3F8
102
}
330
3F8
100
AcDbXrecord
280
     1
102
RTVSPropertyOp0
 70
     1
102
RTVSPropertyOp1
 70
     1
102
RTVSPropertyOp2
 70
     1
102
RTVSPropertyOp3
 70
     1
102
RTVSPropertyOp4
 70
     1
102
RTVSPropertyOp5
 70
     1
102
RTVSPropertyOp6
 70
     1
102
RTVSPropertyOp7
 70
     1
102
RTVSPropertyOp8
 70
     1
102
RTVSPropertyOp9
 70
     1
102
RTVSPropertyOp10
 70
     1
102
RTVSPropertyOp11
 70
     1
102
RTVSPropertyOp12
 70
     1
102
RTVSPropertyOp13
 70
     1
102
RTVSPropertyOp14
 70
     1
102
RTVSPropertyOp15
 70
     1
102
RTVSPropertyOp16
 70
     1
102
RTVSPropertyOp17
 70
     1
102
RTVSPropertyOp18
 70
     1
102
RTVSPropertyOp19
 70
     1
102
RTVSPropertyOp20
 70
     1
102
RTVSPropertyOp21
 70
     1
102
RTVSPropertyOp22
 70
     1
102
RTVSPropertyOp23
 70
     1
102
RTVSPropertyOp24
 70
     1
102
RTVSPropertyOp25
 70
     1
102
RTVSPropertyOp26
 70
     1
102
RTVSPropertyOp27
 70
     1
102
RTVSPropertyOp28
 70
     1
102
RTVSPropertyOp29
 70
     1
102
RTVSPropertyOp30
 70
     1
102
RTVSPropertyOp31
 70
     1
102
RTVSPropertyOp32
 70
     1
102
RTVSPropertyOp33
 70
     1
102
RTVSPropertyOp34
 70
     1
102
RTVSPropertyOp35
 70
     1
102
RTVSPropertyOp36
 70
     1
102
RTVSPropertyOp37
 70
     1
102
RTVSPropertyOp38
 70
     1
102
RTVSPropertyOp39
 70
     1
102
RTVSPropertyOp40
 70
     1
102
RTVSPropertyOp41
 70
     1
102
RTVSPropertyOp42
 70
     1
102
RTVSPropertyOp43
 70
     1
102
RTVSPropertyOp44
 70
     1
102
RTVSPropertyOp45
 70
     1
102
RTVSPropertyOp46
 70
     1
102
RTVSPropertyOp47
 70
     1
102
RTVSPropertyOp48
 70
     1
102
RTVSPropertyOp49
 70
     1
102
RTVSPropertyOp50
 70
     1
102
RTVSPropertyOp51
 70
     0
102
RTVSPropertyOp52
 70
     0
102
RTVSPropertyOp53
 70
     1
102
RTVSPropertyOp54
 70
     1
102
RTVSPropertyOp55
 70
     1
102
RTVSPropertyOp56
 70
     1
102
RTVSPropertyOp57
 70
     1
102
RTVSPost2010Prop28
280
     0
102
RTVSPost2010PropOp28
 70
     1
102
RTVSPost2010Prop29
280
     1
102
RTVSPost2010PropOp29
 70
     1
102
RTVSPost2010Prop30
280
     1
102
RTVSPost2010PropOp30
 70
     1
102
RTVSPost2010Prop31
280
     0
102
RTVSPost2010PropOp31
 70
     1
102
RTVSPost2010Prop32
280
     0
102
RTVSPost2010PropOp32
 70
     1
102
RTVSPost2010Prop33
280
     0
102
RTVSPost2010PropOp33
 70
     1
102
RTVSPost2010Prop34
280
     0
102
RTVSPost2010PropOp34
 70
     1
102
RTVSPost2010Prop35
280
     0
102
RTVSPost2010PropOp35
 70
     1
102
RTVSPost2010Prop36
280
     0
102
RTVSPost2010PropOp36
 70
     1
102
RTVSPost2010Prop37
 90
       50
102
RTVSPost2010PropOp37
 70
     1
102
RTVSPost2010Prop38
140
0.0
102
RTVSPost2010PropOp38
 70
     1
102
RTVSPost2010Prop39
140
1.0
102
RTVSPost2010PropOp39
 70
     1
102
RTVSPost2010Prop40
 90
        0
102
RTVSPost2010PropOp40
 70
     1
102
RTVSPost2010Prop41ColorIndex
 90
       18
102
RTVSPost2010Prop41ColorRGB
 90
        0
102
RTVSPost2010PropOp41
 70
     1
102
RTVSPost2010Prop42
 90
       50
102
RTVSPost2010PropOp42
 70
     1
102
RTVSPost2010Prop43
 90
        3
102
RTVSPost2010PropOp43
 70
     1
102
RTVSPost2010Prop44ColorIndex
 90
        5
102
RTVSPost2010Prop44ColorRGB
 90
      255
102
RTVSPost2010PropOp44
 70
     1
102
RTVSPost2010Prop45
280
     0
102
RTVSPost2010PropOp45
 70
     1
102
RTVSPost2010Prop46
 90
       50
102
RTVSPost2010PropOp46
 70
     1
102
RTVSPost2010Prop47
 90
       50
102
RTVSPost2010PropOp47
 70
     1
102
RTVSPost2010Prop48
 90
       50
102
RTVSPost2010PropOp48
 70
     1
102
RTVSPost2010Prop49
280
     0
102
RTVSPost2010PropOp49
 70
     1
102
RTVSPost2010Prop50
 90
       50
102
RTVSPost2010PropOp50
 70
     1
102
RTVSPost2010Prop51ColorIndex
 90
      256
102
RTVSPost2010Prop51ColorRGB
 90
-16777216
102
RTVSPost2010PropOp51
 70
     0
102
RTVSPost2010Prop52
140
1.0
102
RTVSPost2010PropOp52
 70
     0
102
RTVSPost2010Prop53
 90
        2
102
RTVSPost2010PropOp53
 70
     1
102
RTVSPost2010Prop54
  1
strokes_ogs.tif
102
RTVSPost2010PropOp54
 70
     1
102
RTVSPost2010Prop55
280
     0
102
RTVSPost2010PropOp55
 70
     1
102
RTVSPost2010Prop56
140
1.0
102
RTVSPost2010PropOp56
 70
     1
102
RTVSPost2010Prop57
140
1.0
102
RTVSPost2010PropOp57
 70
     1
  0
XRECORD
  5
3FB
102
{ACAD_REACTORS
330
3FA
102
}
330
3FA
100
AcDbXrecord
280
     1
102
RTVSPropertyOp0
 70
     1
102
RTVSPropertyOp1
 70
     1
102
RTVSPropertyOp2
 70
     1
102
RTVSPropertyOp3
 70
     1
102
RTVSPropertyOp4
 70
     1
102
RTVSPropertyOp5
 70
     1
102
RTVSPropertyOp6
 70
     1
102
RTVSPropertyOp7
 70
     1
102
RTVSPropertyOp8
 70
     1
102
RTVSPropertyOp9
 70
     1
102
RTVSPropertyOp10
 70
     1
102
RTVSPropertyOp11
 70
     1
102
RTVSPropertyOp12
 70
     1
102
RTVSPropertyOp13
 70
     1
102
RTVSPropertyOp14
 70
     1
102
RTVSPropertyOp15
 70
     1
102
RTVSPropertyOp16
 70
     1
102
RTVSPropertyOp17
 70
     1
102
RTVSPropertyOp18
 70
     1
102
RTVSPropertyOp19
 70
     1
102
RTVSPropertyOp20
 70
     1
102
RTVSPropertyOp21
 70
     1
102
RTVSPropertyOp22
 70
     1
102
RTVSPropertyOp23
 70
     1
102
RTVSPropertyOp24
 70
     1
102
RTVSPropertyOp25
 70
     1
102
RTVSPropertyOp26
 70
     1
102
RTVSPropertyOp27
 70
     1
102
RTVSPropertyOp28
 70
     1
102
RTVSPropertyOp29
 70
     1
102
RTVSPropertyOp30
 70
     1
102
RTVSPropertyOp31
 70
     1
102
RTVSPropertyOp32
 70
     1
102
RTVSPropertyOp33
 70
     1
102
RTVSPropertyOp34
 70
     1
102
RTVSPropertyOp35
 70
     1
102
RTVSPropertyOp36
 70
     1
102
RTVSPropertyOp37
 70
     1
102
RTVSPropertyOp38
 70
     1
102
RTVSPropertyOp39
 70
     1
102
RTVSPropertyOp40
 70
     1
102
RTVSPropertyOp41
 70
     1
102
RTVSPropertyOp42
 70
     1
102
RTVSPropertyOp43
 70
     1
102
RTVSPropertyOp44
 70
     1
102
RTVSPropertyOp45
 70
     1
102
RTVSPropertyOp46
 70
     1
102
RTVSPropertyOp47
 70
     1
102
RTVSPropertyOp48
 70
     1
102
RTVSPropertyOp49
 70
     1
102
RTVSPropertyOp50
 70
     1
102
RTVSPropertyOp51
 70
     0
102
RTVSPropertyOp52
 70
     0
102
RTVSPropertyOp53
 70
     1
102
RTVSPropertyOp54
 70
     1
102
RTVSPropertyOp55
 70
     1
102
RTVSPropertyOp56
 70
     1
102
RTVSPropertyOp57
 70
     1
102
RTVSPost2010Prop28
280
     0
102
RTVSPost2010PropOp28
 70
     1
102
RTVSPost2010Prop29
280
     1
102
RTVSPost2010PropOp29
 70
     1
102
RTVSPost2010Prop30
280
     1
102
RTVSPost2010PropOp30
 70
     1
102
RTVSPost2010Prop31
280
     0
102
RTVSPost2010PropOp31
 70
     1
102
RTVSPost2010Prop32
280
     0
102
RTVSPost2010PropOp32
 70
     1
102
RTVSPost2010Prop33
280
     0
102
RTVSPost2010PropOp33
 70
     1
102
RTVSPost2010Prop34
280
     0
102
RTVSPost2010PropOp34
 70
     1
102
RTVSPost2010Prop35
280
     0
102
RTVSPost2010PropOp35
 70
     1
102
RTVSPost2010Prop36
280
     0
102
RTVSPost2010PropOp36
 70
     1
102
RTVSPost2010Prop37
 90
       50
102
RTVSPost2010PropOp37
 70
     1
102
RTVSPost2010Prop38
140
0.0
102
RTVSPost2010PropOp38
 70
     1
102
RTVSPost2010Prop39
140
1.0
102
RTVSPost2010PropOp39
 70
     1
102
RTVSPost2010Prop40
 90
        0
102
RTVSPost2010PropOp40
 70
     1
102
RTVSPost2010Prop41ColorIndex
 90
       18
102
RTVSPost2010Prop41ColorRGB
 90
        0
102
RTVSPost2010PropOp41
 70
     1
102
RTVSPost2010Prop42
 90
       50
102
RTVSPost2010PropOp42
 70
     1
102
RTVSPost2010Prop43
 90
        3
102
RTVSPost2010PropOp43
 70
     1
102
RTVSPost2010Prop44ColorIndex
 90
        5
102
RTVSPost2010Prop44ColorRGB
 90
      255
102
RTVSPost2010PropOp44
 70
     1
102
RTVSPost2010Prop45
280
     0
102
RTVSPost2010PropOp45
 70
     1
102
RTVSPost2010Prop46
 90
       50
102
RTVSPost2010PropOp46
 70
     1
102
RTVSPost2010Prop47
 90
       50
102
RTVSPost2010PropOp47
 70
     1
102
RTVSPost2010Prop48
 90
       50
102
RTVSPost2010PropOp48
 70
     1
102
RTVSPost2010Prop49
280
     0
102
RTVSPost2010PropOp49
 70
     1
102
RTVSPost2010Prop50
 90
       50
102
RTVSPost2010PropOp50
 70
     1
102
RTVSPost2010Prop51ColorIndex
 90
      256
102
RTVSPost2010Prop51ColorRGB
 90
-16777216
102
RTVSPost2010PropOp51
 70
     0
102
RTVSPost2010Prop52
140
1.0
102
RTVSPost2010PropOp52
 70
     0
102
RTVSPost2010Prop53
 90
        2
102
RTVSPost2010PropOp53
 70
     1
102
RTVSPost2010Prop54
  1
strokes_ogs.tif
102
RTVSPost2010PropOp54
 70
     1
102
RTVSPost2010Prop55
280
     0
102
RTVSPost2010PropOp55
 70
     1
102
RTVSPost2010Prop56
140
1.0
102
RTVSPost2010PropOp56
 70
     1
102
RTVSPost2010Prop57
140
1.0
102
RTVSPost2010PropOp57
 70
     1
  0
XRECORD
  5
3EB
102
{ACAD_REACTORS
330
3EA
102
}
330
3EA
100
AcDbXrecord
280
     1
102
RTVSPropertyOp0
 70
     1
102
RTVSPropertyOp1
 70
     1
102
RTVSPropertyOp2
 70
     1
102
RTVSPropertyOp3
 70
     1
102
RTVSPropertyOp4
 70
     1
102
RTVSPropertyOp5
 70
     1
102
RTVSPropertyOp6
 70
     1
102
RTVSPropertyOp7
 70
     1
102
RTVSPropertyOp8
 70
     1
102
RTVSPropertyOp9
 70
     1
102
RTVSPropertyOp10
 70
     1
102
RTVSPropertyOp11
 70
     1
102
RTVSPropertyOp12
 70
     1
102
RTVSPropertyOp13
 70
     1
102
RTVSPropertyOp14
 70
     1
102
RTVSPropertyOp15
 70
     1
102
RTVSPropertyOp16
 70
     1
102
RTVSPropertyOp17
 70
     1
102
RTVSPropertyOp18
 70
     1
102
RTVSPropertyOp19
 70
     1
102
RTVSPropertyOp20
 70
     1
102
RTVSPropertyOp21
 70
     1
102
RTVSPropertyOp22
 70
     1
102
RTVSPropertyOp23
 70
     1
102
RTVSPropertyOp24
 70
     1
102
RTVSPropertyOp25
 70
     1
102
RTVSPropertyOp26
 70
     1
102
RTVSPropertyOp27
 70
     1
102
RTVSPropertyOp28
 70
     1
102
RTVSPropertyOp29
 70
     1
102
RTVSPropertyOp30
 70
     1
102
RTVSPropertyOp31
 70
     1
102
RTVSPropertyOp32
 70
     1
102
RTVSPropertyOp33
 70
     1
102
RTVSPropertyOp34
 70
     1
102
RTVSPropertyOp35
 70
     1
102
RTVSPropertyOp36
 70
     1
102
RTVSPropertyOp37
 70
     1
102
RTVSPropertyOp38
 70
     1
102
RTVSPropertyOp39
 70
     1
102
RTVSPropertyOp40
 70
     1
102
RTVSPropertyOp41
 70
     1
102
RTVSPropertyOp42
 70
     1
102
RTVSPropertyOp43
 70
     1
102
RTVSPropertyOp44
 70
     1
102
RTVSPropertyOp45
 70
     1
102
RTVSPropertyOp46
 70
     1
102
RTVSPropertyOp47
 70
     1
102
RTVSPropertyOp48
 70
     1
102
RTVSPropertyOp49
 70
     1
102
RTVSPropertyOp50
 70
     1
102
RTVSPropertyOp51
 70
     0
102
RTVSPropertyOp52
 70
     0
102
RTVSPropertyOp53
 70
     1
102
RTVSPropertyOp54
 70
     1
102
RTVSPropertyOp55
 70
     1
102
RTVSPropertyOp56
 70
     1
102
RTVSPropertyOp57
 70
     1
102
RTVSPost2010Prop28
280
     0
102
RTVSPost2010PropOp28
 70
     1
102
RTVSPost2010Prop29
280
     1
102
RTVSPost2010PropOp29
 70
     1
102
RTVSPost2010Prop30
280
     1
102
RTVSPost2010PropOp30
 70
     1
102
RTVSPost2010Prop31
280
     0
102
RTVSPost2010PropOp31
 70
     1
102
RTVSPost2010Prop32
280
     0
102
RTVSPost2010PropOp32
 70
     1
102
RTVSPost2010Prop33
280
     0
102
RTVSPost2010PropOp33
 70
     1
102
RTVSPost2010Prop34
280
     0
102
RTVSPost2010PropOp34
 70
     1
102
RTVSPost2010Prop35
280
     0
102
RTVSPost2010PropOp35
 70
     1
102
RTVSPost2010Prop36
280
     0
102
RTVSPost2010PropOp36
 70
     1
102
RTVSPost2010Prop37
 90
       50
102
RTVSPost2010PropOp37
 70
     1
102
RTVSPost2010Prop38
140
0.0
102
RTVSPost2010PropOp38
 70
     1
102
RTVSPost2010Prop39
140
1.0
102
RTVSPost2010PropOp39
 70
     1
102
RTVSPost2010Prop40
 90
        0
102
RTVSPost2010PropOp40
 70
     1
102
RTVSPost2010Prop41ColorIndex
 90
       18
102
RTVSPost2010Prop41ColorRGB
 90
        0
102
RTVSPost2010PropOp41
 70
     1
102
RTVSPost2010Prop42
 90
       50
102
RTVSPost2010PropOp42
 70
     1
102
RTVSPost2010Prop43
 90
        3
102
RTVSPost2010PropOp43
 70
     1
102
RTVSPost2010Prop44ColorIndex
 90
        5
102
RTVSPost2010Prop44ColorRGB
 90
      255
102
RTVSPost2010PropOp44
 70
     1
102
RTVSPost2010Prop45
280
     0
102
RTVSPost2010PropOp45
 70
     1
102
RTVSPost2010Prop46
 90
       50
102
RTVSPost2010PropOp46
 70
     1
102
RTVSPost2010Prop47
 90
       50
102
RTVSPost2010PropOp47
 70
     1
102
RTVSPost2010Prop48
 90
       50
102
RTVSPost2010PropOp48
 70
     1
102
RTVSPost2010Prop49
280
     0
102
RTVSPost2010PropOp49
 70
     1
102
RTVSPost2010Prop50
 90
       50
102
RTVSPost2010PropOp50
 70
     1
102
RTVSPost2010Prop51ColorIndex
 90
      256
102
RTVSPost2010Prop51ColorRGB
 90
-16777216
102
RTVSPost2010PropOp51
 70
     0
102
RTVSPost2010Prop52
140
1.0
102
RTVSPost2010PropOp52
 70
     0
102
RTVSPost2010Prop53
 90
        2
102
RTVSPost2010PropOp53
 70
     1
102
RTVSPost2010Prop54
  1
strokes_ogs.tif
102
RTVSPost2010PropOp54
 70
     1
102
RTVSPost2010Prop55
280
     0
102
RTVSPost2010PropOp55
 70
     1
102
RTVSPost2010Prop56
140
1.0
102
RTVSPost2010PropOp56
 70
     1
102
RTVSPost2010Prop57
140
1.0
102
RTVSPost2010PropOp57
 70
     1
  0
XRECORD
  5
3DD
102
{ACAD_REACTORS
330
3DC
102
}
330
3DC
100
AcDbXrecord
280
     1
102
RTVSPropertyOp0
 70
     1
102
RTVSPropertyOp1
 70
     1
102
RTVSPropertyOp2
 70
     1
102
RTVSPropertyOp3
 70
     1
102
RTVSPropertyOp4
 70
     1
102
RTVSPropertyOp5
 70
     1
102
RTVSPropertyOp6
 70
     1
102
RTVSPropertyOp7
 70
     1
102
RTVSPropertyOp8
 70
     1
102
RTVSPropertyOp9
 70
     1
102
RTVSPropertyOp10
 70
     1
102
RTVSPropertyOp11
 70
     1
102
RTVSPropertyOp12
 70
     1
102
RTVSPropertyOp13
 70
     1
102
RTVSPropertyOp14
 70
     1
102
RTVSPropertyOp15
 70
     1
102
RTVSPropertyOp16
 70
     1
102
RTVSPropertyOp17
 70
     1
102
RTVSPropertyOp18
 70
     1
102
RTVSPropertyOp19
 70
     1
102
RTVSPropertyOp20
 70
     1
102
RTVSPropertyOp21
 70
     1
102
RTVSPropertyOp22
 70
     1
102
RTVSPropertyOp23
 70
     1
102
RTVSPropertyOp24
 70
     1
102
RTVSPropertyOp25
 70
     1
102
RTVSPropertyOp26
 70
     1
102
RTVSPropertyOp27
 70
     1
102
RTVSPropertyOp28
 70
     1
102
RTVSPropertyOp29
 70
     1
102
RTVSPropertyOp30
 70
     1
102
RTVSPropertyOp31
 70
     1
102
RTVSPropertyOp32
 70
     1
102
RTVSPropertyOp33
 70
     1
102
RTVSPropertyOp34
 70
     1
102
RTVSPropertyOp35
 70
     1
102
RTVSPropertyOp36
 70
     1
102
RTVSPropertyOp37
 70
     1
102
RTVSPropertyOp38
 70
     1
102
RTVSPropertyOp39
 70
     1
102
RTVSPropertyOp40
 70
     1
102
RTVSPropertyOp41
 70
     1
102
RTVSPropertyOp42
 70
     1
102
RTVSPropertyOp43
 70
     1
102
RTVSPropertyOp44
 70
     1
102
RTVSPropertyOp45
 70
     1
102
RTVSPropertyOp46
 70
     1
102
RTVSPropertyOp47
 70
     1
102
RTVSPropertyOp48
 70
     1
102
RTVSPropertyOp49
 70
     1
102
RTVSPropertyOp50
 70
     1
102
RTVSPropertyOp51
 70
     0
102
RTVSPropertyOp52
 70
     0
102
RTVSPropertyOp53
 70
     1
102
RTVSPropertyOp54
 70
     1
102
RTVSPropertyOp55
 70
     1
102
RTVSPropertyOp56
 70
     1
102
RTVSPropertyOp57
 70
     1
102
RTVSPost2010Prop28
280
     0
102
RTVSPost2010PropOp28
 70
     1
102
RTVSPost2010Prop29
280
     1
102
RTVSPost2010PropOp29
 70
     1
102
RTVSPost2010Prop30
280
     1
102
RTVSPost2010PropOp30
 70
     1
102
RTVSPost2010Prop31
280
     0
102
RTVSPost2010PropOp31
 70
     1
102
RTVSPost2010Prop32
280
     0
102
RTVSPost2010PropOp32
 70
     1
102
RTVSPost2010Prop33
280
     0
102
RTVSPost2010PropOp33
 70
     1
102
RTVSPost2010Prop34
280
     0
102
RTVSPost2010PropOp34
 70
     1
102
RTVSPost2010Prop35
280
     0
102
RTVSPost2010PropOp35
 70
     1
102
RTVSPost2010Prop36
280
     0
102
RTVSPost2010PropOp36
 70
     1
102
RTVSPost2010Prop37
 90
       50
102
RTVSPost2010PropOp37
 70
     1
102
RTVSPost2010Prop38
140
0.0
102
RTVSPost2010PropOp38
 70
     1
102
RTVSPost2010Prop39
140
1.0
102
RTVSPost2010PropOp39
 70
     1
102
RTVSPost2010Prop40
 90
        0
102
RTVSPost2010PropOp40
 70
     1
102
RTVSPost2010Prop41ColorIndex
 90
       18
102
RTVSPost2010Prop41ColorRGB
 90
        0
102
RTVSPost2010PropOp41
 70
     1
102
RTVSPost2010Prop42
 90
       50
102
RTVSPost2010PropOp42
 70
     1
102
RTVSPost2010Prop43
 90
        3
102
RTVSPost2010PropOp43
 70
     1
102
RTVSPost2010Prop44ColorIndex
 90
        5
102
RTVSPost2010Prop44ColorRGB
 90
      255
102
RTVSPost2010PropOp44
 70
     1
102
RTVSPost2010Prop45
280
     0
102
RTVSPost2010PropOp45
 70
     1
102
RTVSPost2010Prop46
 90
       50
102
RTVSPost2010PropOp46
 70
     1
102
RTVSPost2010Prop47
 90
       50
102
RTVSPost2010PropOp47
 70
     1
102
RTVSPost2010Prop48
 90
       50
102
RTVSPost2010PropOp48
 70
     1
102
RTVSPost2010Prop49
280
     0
102
RTVSPost2010PropOp49
 70
     1
102
RTVSPost2010Prop50
 90
       50
102
RTVSPost2010PropOp50
 70
     1
102
RTVSPost2010Prop51ColorIndex
 90
      256
102
RTVSPost2010Prop51ColorRGB
 90
-16777216
102
RTVSPost2010PropOp51
 70
     0
102
RTVSPost2010Prop52
140
1.0
102
RTVSPost2010PropOp52
 70
     0
102
RTVSPost2010Prop53
 90
        2
102
RTVSPost2010PropOp53
 70
     1
102
RTVSPost2010Prop54
  1
strokes_ogs.tif
102
RTVSPost2010PropOp54
 70
     1
102
RTVSPost2010Prop55
280
     0
102
RTVSPost2010PropOp55
 70
     1
102
RTVSPost2010Prop56
140
1.0
102
RTVSPost2010PropOp56
 70
     1
102
RTVSPost2010Prop57
140
1.0
102
RTVSPost2010PropOp57
 70
     1
  0
XRECORD
  5
3FD
102
{ACAD_REACTORS
330
3FC
102
}
330
3FC
100
AcDbXrecord
280
     1
102
RTVSPropertyOp0
 70
     1
102
RTVSPropertyOp1
 70
     1
102
RTVSPropertyOp2
 70
     1
102
RTVSPropertyOp3
 70
     1
102
RTVSPropertyOp4
 70
     1
102
RTVSPropertyOp5
 70
     1
102
RTVSPropertyOp6
 70
     1
102
RTVSPropertyOp7
 70
     1
102
RTVSPropertyOp8
 70
     1
102
RTVSPropertyOp9
 70
     1
102
RTVSPropertyOp10
 70
     1
102
RTVSPropertyOp11
 70
     1
102
RTVSPropertyOp12
 70
     1
102
RTVSPropertyOp13
 70
     1
102
RTVSPropertyOp14
 70
     1
102
RTVSPropertyOp15
 70
     1
102
RTVSPropertyOp16
 70
     1
102
RTVSPropertyOp17
 70
     1
102
RTVSPropertyOp18
 70
     1
102
RTVSPropertyOp19
 70
     1
102
RTVSPropertyOp20
 70
     1
102
RTVSPropertyOp21
 70
     1
102
RTVSPropertyOp22
 70
     1
102
RTVSPropertyOp23
 70
     1
102
RTVSPropertyOp24
 70
     1
102
RTVSPropertyOp25
 70
     1
102
RTVSPropertyOp26
 70
     1
102
RTVSPropertyOp27
 70
     1
102
RTVSPropertyOp28
 70
     1
102
RTVSPropertyOp29
 70
     1
102
RTVSPropertyOp30
 70
     1
102
RTVSPropertyOp31
 70
     1
102
RTVSPropertyOp32
 70
     1
102
RTVSPropertyOp33
 70
     1
102
RTVSPropertyOp34
 70
     1
102
RTVSPropertyOp35
 70
     1
102
RTVSPropertyOp36
 70
     1
102
RTVSPropertyOp37
 70
     1
102
RTVSPropertyOp38
 70
     1
102
RTVSPropertyOp39
 70
     1
102
RTVSPropertyOp40
 70
     1
102
RTVSPropertyOp41
 70
     1
102
RTVSPropertyOp42
 70
     1
102
RTVSPropertyOp43
 70
     1
102
RTVSPropertyOp44
 70
     1
102
RTVSPropertyOp45
 70
     1
102
RTVSPropertyOp46
 70
     1
102
RTVSPropertyOp47
 70
     1
102
RTVSPropertyOp48
 70
     1
102
RTVSPropertyOp49
 70
     1
102
RTVSPropertyOp50
 70
     1
102
RTVSPropertyOp51
 70
     0
102
RTVSPropertyOp52
 70
     0
102
RTVSPropertyOp53
 70
     1
102
RTVSPropertyOp54
 70
     1
102
RTVSPropertyOp55
 70
     1
102
RTVSPropertyOp56
 70
     1
102
RTVSPropertyOp57
 70
     1
102
RTVSPost2010Prop28
280
     0
102
RTVSPost2010PropOp28
 70
     1
102
RTVSPost2010Prop29
280
     1
102
RTVSPost2010PropOp29
 70
     1
102
RTVSPost2010Prop30
280
     1
102
RTVSPost2010PropOp30
 70
     1
102
RTVSPost2010Prop31
280
     0
102
RTVSPost2010PropOp31
 70
     1
102
RTVSPost2010Prop32
280
     0
102
RTVSPost2010PropOp32
 70
     1
102
RTVSPost2010Prop33
280
     0
102
RTVSPost2010PropOp33
 70
     1
102
RTVSPost2010Prop34
280
     0
102
RTVSPost2010PropOp34
 70
     1
102
RTVSPost2010Prop35
280
     0
102
RTVSPost2010PropOp35
 70
     1
102
RTVSPost2010Prop36
280
     0
102
RTVSPost2010PropOp36
 70
     1
102
RTVSPost2010Prop37
 90
       50
102
RTVSPost2010PropOp37
 70
     1
102
RTVSPost2010Prop38
140
0.0
102
RTVSPost2010PropOp38
 70
     1
102
RTVSPost2010Prop39
140
1.0
102
RTVSPost2010PropOp39
 70
     1
102
RTVSPost2010Prop40
 90
        0
102
RTVSPost2010PropOp40
 70
     1
102
RTVSPost2010Prop41ColorIndex
 90
       18
102
RTVSPost2010Prop41ColorRGB
 90
        0
102
RTVSPost2010PropOp41
 70
     1
102
RTVSPost2010Prop42
 90
       50
102
RTVSPost2010PropOp42
 70
     1
102
RTVSPost2010Prop43
 90
        3
102
RTVSPost2010PropOp43
 70
     1
102
RTVSPost2010Prop44ColorIndex
 90
        5
102
RTVSPost2010Prop44ColorRGB
 90
      255
102
RTVSPost2010PropOp44
 70
     1
102
RTVSPost2010Prop45
280
     0
102
RTVSPost2010PropOp45
 70
     1
102
RTVSPost2010Prop46
 90
       50
102
RTVSPost2010PropOp46
 70
     1
102
RTVSPost2010Prop47
 90
       50
102
RTVSPost2010PropOp47
 70
     1
102
RTVSPost2010Prop48
 90
       50
102
RTVSPost2010PropOp48
 70
     1
102
RTVSPost2010Prop49
280
     0
102
RTVSPost2010PropOp49
 70
     1
102
RTVSPost2010Prop50
 90
       50
102
RTVSPost2010PropOp50
 70
     1
102
RTVSPost2010Prop51ColorIndex
 90
      256
102
RTVSPost2010Prop51ColorRGB
 90
-16777216
102
RTVSPost2010PropOp51
 70
     0
102
RTVSPost2010Prop52
140
1.0
102
RTVSPost2010PropOp52
 70
     0
102
RTVSPost2010Prop53
 90
        2
102
RTVSPost2010PropOp53
 70
     1
102
RTVSPost2010Prop54
  1
strokes_ogs.tif
102
RTVSPost2010PropOp54
 70
     1
102
RTVSPost2010Prop55
280
     0
102
RTVSPost2010PropOp55
 70
     1
102
RTVSPost2010Prop56
140
1.0
102
RTVSPost2010PropOp56
 70
     1
102
RTVSPost2010Prop57
140
1.0
102
RTVSPost2010PropOp57
 70
     1
  0
ENDSEC
  0
SECTION
  2
THUMBNAILIMAGE
 90
      188
310
28000000D200000031010000010008000000000094FC000000000000000000000000000000000000000000000000330000006600000099000000CC000000FF00003300000033330000336600003399000033CC000033FF00006600000066330000666600006699000066CC000066FF00009900000099330000996600009999
310
000099CC000099FF0000CC000000CC330000CC660000CC990000CCCC0000CCFF0000FF000000FF330000FF660000FF990000FFCC0000FFFF0033000000
  0
ENDSEC
  0
EOF
